  0
SECTION
  2
HEADER
  9
$ACADVER
  1
AC1015
  9
$ACADMAINTVER
 70
     6
  9
$DWGCODEPAGE
  3
ANSI_1252
  9
$INSBASE
 10
0.0
 20
0.0
 30
0.0
  9
$EXTMIN
 10
233.704853306891
 20
-830.7285089514185
 30
0.0
  9
$EXTMAX
 10
1718.704853306891
 20
219.2714910485823
 30
0.0
  9
$LIMMIN
 10
0.0
 20
0.0
  9
$LIMMAX
 10
12.0
 20
9.0
  9
$ORTHOMODE
 70
     0
  9
$REGENMODE
 70
     1
  9
$FILLMODE
 70
     1
  9
$QTEXTMODE
 70
     0
  9
$MIRRTEXT
 70
     1
  9
$LTSCALE
 40
1.0
  9
$ATTMODE
 70
     1
  9
$TEXTSIZE
 40
0.2
  9
$TRACEWID
 40
0.05
  9
$TEXTSTYLE
  7
Standard
  9
$CLAYER
  8
0
  9
$CELTYPE
  6
ByLayer
  9
$CECOLOR
 62
   256
  9
$CELTSCALE
 40
1.0
  9
$DISPSILH
 70
     0
  9
$DIMSCALE
 40
1.0
  9
$DIMASZ
 40
0.18
  9
$DIMEXO
 40
0.0625
  9
$DIMDLI
 40
0.38
  9
$DIMRND
 40
0.0
  9
$DIMDLE
 40
0.0
  9
$DIMEXE
 40
0.18
  9
$DIMTP
 40
0.0
  9
$DIMTM
 40
0.0
  9
$DIMTXT
 40
0.18
  9
$DIMCEN
 40
0.09
  9
$DIMTSZ
 40
0.0
  9
$DIMTOL
 70
     0
  9
$DIMLIM
 70
     0
  9
$DIMTIH
 70
     1
  9
$DIMTOH
 70
     1
  9
$DIMSE1
 70
     0
  9
$DIMSE2
 70
     0
  9
$DIMTAD
 70
     0
  9
$DIMZIN
 70
     0
  9
$DIMBLK
  1

  9
$DIMASO
 70
     1
  9
$DIMSHO
 70
     1
  9
$DIMPOST
  1

  9
$DIMAPOST
  1

  9
$DIMALT
 70
     0
  9
$DIMALTD
 70
     2
  9
$DIMALTF
 40
25.4
  9
$DIMLFAC
 40
1.0
  9
$DIMTOFL
 70
     0
  9
$DIMTVP
 40
0.0
  9
$DIMTIX
 70
     0
  9
$DIMSOXD
 70
     0
  9
$DIMSAH
 70
     0
  9
$DIMBLK1
  1

  9
$DIMBLK2
  1

  9
$DIMSTYLE
  2
Standard
  9
$DIMCLRD
 70
     0
  9
$DIMCLRE
 70
     0
  9
$DIMCLRT
 70
     0
  9
$DIMTFAC
 40
1.0
  9
$DIMGAP
 40
0.09
  9
$DIMJUST
 70
     0
  9
$DIMSD1
 70
     0
  9
$DIMSD2
 70
     0
  9
$DIMTOLJ
 70
     1
  9
$DIMTZIN
 70
     0
  9
$DIMALTZ
 70
     0
  9
$DIMALTTZ
 70
     0
  9
$DIMUPT
 70
     0
  9
$DIMDEC
 70
     4
  9
$DIMTDEC
 70
     4
  9
$DIMALTU
 70
     2
  9
$DIMALTTD
 70
     2
  9
$DIMTXSTY
  7
Standard
  9
$DIMAUNIT
 70
     0
  9
$DIMADEC
 70
     0
  9
$DIMALTRND
 40
0.0
  9
$DIMAZIN
 70
     0
  9
$DIMDSEP
 70
    46
  9
$DIMATFIT
 70
     3
  9
$DIMFRAC
 70
     0
  9
$DIMLDRBLK
  1

  9
$DIMLUNIT
 70
     2
  9
$DIMLWD
 70
    -2
  9
$DIMLWE
 70
    -2
  9
$DIMTMOVE
 70
     0
  9
$LUNITS
 70
     2
  9
$LUPREC
 70
     4
  9
$SKETCHINC
 40
0.1
  9
$FILLETRAD
 40
0.5
  9
$AUNITS
 70
     0
  9
$AUPREC
 70
     0
  9
$MENU
  1
.
  9
$ELEVATION
 40
0.0
  9
$PELEVATION
 40
0.0
  9
$THICKNESS
 40
0.0
  9
$LIMCHECK
 70
     0
  9
$CHAMFERA
 40
0.5
  9
$CHAMFERB
 40
0.5
  9
$CHAMFERC
 40
1.0
  9
$CHAMFERD
 40
0.0
  9
$SKPOLY
 70
     0
  9
$TDCREATE
 40
2456997.441996192
  9
$TDUCREATE
 40
2456997.400329526
  9
$TDUPDATE
 40
2456997.441996562
  9
$TDUUPDATE
 40
2456997.400329896
  9
$TDINDWG
 40
0.0000000116
  9
$TDUSRTIMER
 40
0.0000000116
  9
$USRTIMER
 70
     1
  9
$ANGBASE
 50
0.0
  9
$ANGDIR
 70
     0
  9
$PDMODE
 70
     0
  9
$PDSIZE
 40
0.0
  9
$PLINEWID
 40
0.0
  9
$SPLFRAME
 70
     0
  9
$SPLINETYPE
 70
     6
  9
$SPLINESEGS
 70
     8
  9
$HANDSEED
  5
30C
  9
$SURFTAB1
 70
     6
  9
$SURFTAB2
 70
     6
  9
$SURFTYPE
 70
     6
  9
$SURFU
 70
     6
  9
$SURFV
 70
     6
  9
$UCSBASE
  2

  9
$UCSNAME
  2

  9
$UCSORG
 10
0.0
 20
0.0
 30
0.0
  9
$UCSXDIR
 10
1.0
 20
0.0
 30
0.0
  9
$UCSYDIR
 10
0.0
 20
1.0
 30
0.0
  9
$UCSORTHOREF
  2

  9
$UCSORTHOVIEW
 70
     0
  9
$UCSORGTOP
 10
0.0
 20
0.0
 30
0.0
  9
$UCSORGBOTTOM
 10
0.0
 20
0.0
 30
0.0
  9
$UCSORGLEFT
 10
0.0
 20
0.0
 30
0.0
  9
$UCSORGRIGHT
 10
0.0
 20
0.0
 30
0.0
  9
$UCSORGFRONT
 10
0.0
 20
0.0
 30
0.0
  9
$UCSORGBACK
 10
0.0
 20
0.0
 30
0.0
  9
$PUCSBASE
  2

  9
$PUCSNAME
  2

  9
$PUCSORG
 10
0.0
 20
0.0
 30
0.0
  9
$PUCSXDIR
 10
1.0
 20
0.0
 30
0.0
  9
$PUCSYDIR
 10
0.0
 20
1.0
 30
0.0
  9
$PUCSORTHOREF
  2

  9
$PUCSORTHOVIEW
 70
     0
  9
$PUCSORGTOP
 10
0.0
 20
0.0
 30
0.0
  9
$PUCSORGBOTTOM
 10
0.0
 20
0.0
 30
0.0
  9
$PUCSORGLEFT
 10
0.0
 20
0.0
 30
0.0
  9
$PUCSORGRIGHT
 10
0.0
 20
0.0
 30
0.0
  9
$PUCSORGFRONT
 10
0.0
 20
0.0
 30
0.0
  9
$PUCSORGBACK
 10
0.0
 20
0.0
 30
0.0
  9
$USERI1
 70
     0
  9
$USERI2
 70
     0
  9
$USERI3
 70
     0
  9
$USERI4
 70
     0
  9
$USERI5
 70
     0
  9
$USERR1
 40
18.1
  9
$USERR2
 40
0.0
  9
$USERR3
 40
0.0
  9
$USERR4
 40
0.0
  9
$USERR5
 40
0.0
  9
$WORLDVIEW
 70
     1
  9
$SHADEDGE
 70
     3
  9
$SHADEDIF
 70
    70
  9
$TILEMODE
 70
     1
  9
$MAXACTVP
 70
    64
  9
$PINSBASE
 10
0.0
 20
0.0
 30
0.0
  9
$PLIMCHECK
 70
     0
  9
$PEXTMIN
 10
1.00000000000000E+20
 20
1.00000000000000E+20
 30
1.00000000000000E+20
  9
$PEXTMAX
 10
-1.00000000000000E+20
 20
-1.00000000000000E+20
 30
-1.00000000000000E+20
  9
$PLIMMIN
 10
0.0
 20
0.0
  9
$PLIMMAX
 10
12.0
 20
9.0
  9
$UNITMODE
 70
     0
  9
$VISRETAIN
 70
     1
  9
$PLINEGEN
 70
     0
  9
$PSLTSCALE
 70
     1
  9
$TREEDEPTH
 70
  3020
  9
$CMLSTYLE
  2
Standard
  9
$CMLJUST
 70
     0
  9
$CMLSCALE
 40
1.0
  9
$PROXYGRAPHICS
 70
     1
  9
$MEASUREMENT
 70
     1
  9
$CELWEIGHT
370
    -1
  9
$ENDCAPS
280
     0
  9
$JOINSTYLE
280
     0
  9
$LWDISPLAY
290
     0
  9
$INSUNITS
 70
     4
  9
$HYPERLINKBASE
  1

  9
$STYLESHEET
  1

  9
$XEDIT
290
     1
  9
$CEPSNTYPE
380
     0
  9
$PSTYLEMODE
290
     1
  9
$FINGERPRINTGUID
  2
{F11494A5-6023-4C68-8423-7475EF9D7D23}
  9
$VERSIONGUID
  2
{FAEB1C32-E019-11D5-929B-00C0DF256EC4}
  9
$EXTNAMES
290
     1
  9
$PSVPSCALE
 40
0.0
  9
$OLESTARTUP
290
     0
  0
ENDSEC
  0
SECTION
  2
CLASSES
  0
CLASS
  1
ACDBDICTIONARYWDFLT
  2
AcDbDictionaryWithDefault
  3
ObjectDBX Classes
 90
        0
280
     0
281
     0
  0
CLASS
  1
VISUALSTYLE
  2
AcDbVisualStyle
  3
ObjectDBX Classes
 90
     4095
280
     0
281
     0
  0
CLASS
  1
MATERIAL
  2
AcDbMaterial
  3
ObjectDBX Classes
 90
     1153
280
     0
281
     0
  0
CLASS
  1
DICTIONARYVAR
  2
AcDbDictionaryVar
  3
ObjectDBX Classes
 90
        0
280
     0
281
     0
  0
CLASS
  1
ACDBPLACEHOLDER
  2
AcDbPlaceHolder
  3
ObjectDBX Classes
 90
        0
280
     0
281
     0
  0
CLASS
  1
LAYOUT
  2
AcDbLayout
  3
ObjectDBX Classes
 90
        0
280
     0
281
     0
  0
ENDSEC
  0
SECTION
  2
TABLES
  0
TABLE
  2
VPORT
  5
8
330
0
100
AcDbSymbolTable
 70
     1
  0
VPORT
  5
29
330
8
100
AcDbSymbolTableRecord
100
AcDbViewportTableRecord
  2
*Active
 70
     0
 10
0.0
 20
0.0
 11
1.0
 21
1.0
 12
976.204853306891
 22
-305.7285089514181
 13
0.0
 23
0.0
 14
0.5
 24
0.5
 15
0.5
 25
0.5
 16
0.0
 26
0.0
 36
1.0
 17
0.0
 27
0.0
 37
0.0
 40
1155.000000000001
 41
1.60267857142857
 42
50.0
 43
0.0
 44
0.0
 50
0.0
 51
0.0
 71
     0
 72
   100
 73
     1
 74
     3
 75
     0
 76
     0
 77
     0
 78
     0
281
     0
 65
     1
110
0.0
120
0.0
130
0.0
111
1.0
121
0.0
131
0.0
112
0.0
122
1.0
132
0.0
 79
     0
146
0.0
  0
ENDTAB
  0
TABLE
  2
LTYPE
  5
5
330
0
100
AcDbSymbolTable
 70
     8
  0
LTYPE
  5
14
330
5
100
AcDbSymbolTableRecord
100
AcDbLinetypeTableRecord
  2
ByBlock
 70
     0
  3

 72
    65
 73
     0
 40
0.0
  0
LTYPE
  5
15
330
5
100
AcDbSymbolTableRecord
100
AcDbLinetypeTableRecord
  2
ByLayer
 70
     0
  3

 72
    65
 73
     0
 40
0.0
  0
LTYPE
  5
16
330
5
100
AcDbSymbolTableRecord
100
AcDbLinetypeTableRecord
  2
Continuous
 70
     0
  3
Solid line
 72
    65
 73
     0
 40
0.0
  0
LTYPE
  5
3F
330
5
100
AcDbSymbolTableRecord
100
AcDbLinetypeTableRecord
  2
DASHED
 70
     0
  3
Dashed
 72
    65
 73
     2
 40
15.0
 49
7.0
 74
     0
 49
-8.0
 74
     0
  0
LTYPE
  5
40
330
5
100
AcDbSymbolTableRecord
100
AcDbLinetypeTableRecord
  2
DOTTED
 70
     0
  3
Dotted
 72
    65
 73
     2
 40
1.0
 49
0.0
 74
     0
 49
-1.0
 74
     0
  0
LTYPE
  5
41
330
5
100
AcDbSymbolTableRecord
100
AcDbLinetypeTableRecord
  2
DOT_CENTER
 70
     0
  3
Dot_Center
 72
    65
 73
     4
 40
14.0
 49
12.0
 74
     0
 49
-1.0
 74
     0
 49
0.0
 74
     0
 49
-1.0
 74
     0
  0
LTYPE
  5
42
330
5
100
AcDbSymbolTableRecord
100
AcDbLinetypeTableRecord
  2
LONG_DASHED
 70
     0
  3
Long_Dashed
 72
    65
 73
     2
 40
15.0
 49
10.0
 74
     0
 49
-5.0
 74
     0
  0
LTYPE
  5
43
330
5
100
AcDbSymbolTableRecord
100
AcDbLinetypeTableRecord
  2
DASH_CENTER
 70
     0
  3
Dash_Center
 72
    65
 73
     4
 40
14.0
 49
11.0
 74
     0
 49
-1.0
 74
     0
 49
1.0
 74
     0
 49
-1.0
 74
     0
  0
LTYPE
  5
44
330
5
100
AcDbSymbolTableRecord
100
AcDbLinetypeTableRecord
  2
PHANTOM
 70
     0
  3
Phantom
 72
    65
 73
     6
 40
13.0
 49
10.0
 74
     0
 49
-1.0
 74
     0
 49
0.0
 74
     0
 49
-1.0
 74
     0
 49
0.0
 74
     0
 49
-1.0
 74
     0
  0
LTYPE
  5
45
330
5
100
AcDbSymbolTableRecord
100
AcDbLinetypeTableRecord
  2
CENTER_DASH_DASH
 70
     0
  3
Center_Dash_Dash
 72
    65
 73
     6
 40
14.0
 49
9.0
 74
     0
 49
-1.0
 74
     0
 49
1.0
 74
     0
 49
-1.0
 74
     0
 49
1.0
 74
     0
 49
-1.0
 74
     0
  0
ENDTAB
  0
TABLE
  2
LAYER
  5
2
330
0
100
AcDbSymbolTable
 70
     2
  0
LAYER
  5
10
330
2
100
AcDbSymbolTableRecord
100
AcDbLayerTableRecord
  2
0
 70
     0
 62
     7
  6
Continuous
370
    -3
390
F
  0
LAYER
  5
46
330
2
100
AcDbSymbolTableRecord
100
AcDbLayerTableRecord
  2
1
 70
     0
 62
     7
  6
Continuous
370
    -3
390
F
  0
ENDTAB
  0
TABLE
  2
STYLE
  5
3
330
0
100
AcDbSymbolTable
 70
     4
  0
STYLE
  5
11
330
3
100
AcDbSymbolTableRecord
100
AcDbTextStyleTableRecord
  2
Standard
 70
     0
 40
0.0
 41
1.0
 50
0.0
 71
     0
 42
0.2
  3
txt
  4

  0
STYLE
  5
9B
330
3
100
AcDbSymbolTableRecord
100
AcDbTextStyleTableRecord
  2
CONVERTER_11
 70
     0
 40
0.0
 41
1.2
 50
0.0
 71
     0
 42
0.2
  3
ARIAL.TTF
  4

  0
STYLE
  5
9E
330
3
100
AcDbSymbolTableRecord
100
AcDbTextStyleTableRecord
  2
CONVERTER_12
 70
     0
 40
0.0
 41
1.38
 50
0.0
 71
     0
 42
0.2
  3
ARIAL.TTF
  4

  0
STYLE
  5
2C4
330
3
100
AcDbSymbolTableRecord
100
AcDbTextStyleTableRecord
  2
CONVERTER_13
 70
     0
 40
0.0
 41
0.95
 50
0.0
 71
     0
 42
0.2
  3
simplex.shx
  4

  0
ENDTAB
  0
TABLE
  2
VIEW
  5
6
330
0
100
AcDbSymbolTable
 70
     0
  0
ENDTAB
  0
TABLE
  2
UCS
  5
7
330
0
100
AcDbSymbolTable
 70
     0
  0
ENDTAB
  0
TABLE
  2
APPID
  5
9
330
0
100
AcDbSymbolTable
 70
     1
  0
APPID
  5
12
330
9
100
AcDbSymbolTableRecord
100
AcDbRegAppTableRecord
  2
ACAD
 70
     0
  0
ENDTAB
  0
TABLE
  2
DIMSTYLE
  5
A
330
0
100
AcDbSymbolTable
 70
     4
100
AcDbDimStyleTable
  0
DIMSTYLE
105
27
330
A
100
AcDbSymbolTableRecord
100
AcDbDimStyleTableRecord
  2
Standard
 70
     0
178
     0
340
11
  0
DIMSTYLE
105
2C8
102
{ACAD_REACTORS
330
2C9
102
}
330
A
100
AcDbSymbolTableRecord
100
AcDbDimStyleTableRecord
  2
ME10_DIM_10
 70
     0
 41
15.0
 42
2.5
 44
5.0
 73
     0
 74
     0
 77
     1
 78
     8
140
15.0
147
10.0
172
     1
173
     1
174
     1
175
     1
176
     2
177
     2
271
     2
178
     4
271
     2
340
2C4
  0
DIMSTYLE
105
2D3
102
{ACAD_REACTORS
330
2D4
102
}
330
A
100
AcDbSymbolTableRecord
100
AcDbDimStyleTableRecord
  2
ME10_DIM_11
 70
     0
 41
15.0
 42
2.5
 44
5.0
 73
     0
 74
     0
 77
     1
 78
     8
140
15.0
147
10.0
172
     1
173
     1
174
     1
175
     1
176
     2
177
     2
271
     2
178
     4
271
     2
340
2C4
  0
DIMSTYLE
105
2DE
102
{ACAD_REACTORS
330
2DF
102
}
330
A
100
AcDbSymbolTableRecord
100
AcDbDimStyleTableRecord
  2
ME10_DIM_12
 70
     0
 41
15.0
 42
2.5
 44
5.0
 73
     0
 74
     0
 77
     1
 78
     8
140
15.0
147
10.0
172
     1
173
     1
174
     1
175
     1
176
     2
177
     2
271
     2
178
     4
271
     2
340
2C4
  0
ENDTAB
  0
TABLE
  2
BLOCK_RECORD
  5
1
330
0
100
AcDbSymbolTable
 70
     6
  0
BLOCK_RECORD
  5
1F
330
1
100
AcDbSymbolTableRecord
100
AcDbBlockTableRecord
  2
*Model_Space
340
22
  0
BLOCK_RECORD
  5
1B
330
1
100
AcDbSymbolTableRecord
100
AcDbBlockTableRecord
  2
*Paper_Space
340
1E
  0
BLOCK_RECORD
  5
23
330
1
100
AcDbSymbolTableRecord
100
AcDbBlockTableRecord
  2
*Paper_Space0
340
26
  0
BLOCK_RECORD
  5
47
330
1
100
AcDbSymbolTableRecord
100
AcDbBlockTableRecord
  2
_formato_A4
340
0
102
{BLKREFS
331
4B
102
}
  0
BLOCK_RECORD
  5
4A
330
1
100
AcDbSymbolTableRecord
100
AcDbBlockTableRecord
  2
A4_oriz
340
0
102
{BLKREFS
331
4E
102
}
  0
BLOCK_RECORD
  5
2BC
330
1
100
AcDbSymbolTableRecord
100
AcDbBlockTableRecord
  2
*D3
340
0
  0
BLOCK_RECORD
  5
2CA
330
1
100
AcDbSymbolTableRecord
100
AcDbBlockTableRecord
  2
*D4
340
0
  0
BLOCK_RECORD
  5
2D5
330
1
100
AcDbSymbolTableRecord
100
AcDbBlockTableRecord
  2
*D5
340
0
  0
ENDTAB
  0
ENDSEC
  0
SECTION
  2
BLOCKS
  0
BLOCK
  5
20
330
1F
100
AcDbEntity
  8
0
100
AcDbBlockBegin
  2
*Model_Space
 70
     0
 10
0.0
 20
0.0
 30
0.0
  3
*Model_Space
  1

  0
ENDBLK
  5
21
330
1F
100
AcDbEntity
  8
0
100
AcDbBlockEnd
  0
BLOCK
  5
1C
330
1B
100
AcDbEntity
 67
     1
  8
0
100
AcDbBlockBegin
  2
*Paper_Space
 70
     0
 10
0.0
 20
0.0
 30
0.0
  3
*Paper_Space
  1

  0
ENDBLK
  5
1D
330
1B
100
AcDbEntity
 67
     1
  8
0
100
AcDbBlockEnd
  0
BLOCK
  5
24
330
23
100
AcDbEntity
  8
0
100
AcDbBlockBegin
  2
*Paper_Space0
 70
     0
 10
0.0
 20
0.0
 30
0.0
  3
*Paper_Space0
  1

  0
ENDBLK
  5
25
330
23
100
AcDbEntity
  8
0
100
AcDbBlockEnd
  0
BLOCK
  5
48
330
47
100
AcDbEntity
  8
0
100
AcDbBlockBegin
  2
_formato_A4
 70
     0
 10
593.7674266534456
 20
-283.0642544757091
 30
0.0
  3
_formato_A4
  1

  0
LINE
  5
4F
330
47
100
AcDbEntity
  8
1
  6
Continuous
 62
     7
100
AcDbLine
 10
404.7674266534456
 20
-278.0642544757092
 30
0.0
 11
404.7674266534456
 21
-243.0642544757091
 31
0.0
  0
LINE
  5
50
330
47
100
AcDbEntity
  8
1
  6
Continuous
 62
     7
100
AcDbLine
 10
404.7674266534456
 20
-263.0642544757091
 30
0.0
 11
588.7674266534456
 21
-263.0642544757091
 31
0.0
  0
LINE
  5
51
330
47
100
AcDbEntity
  8
1
  6
Continuous
 62
     7
100
AcDbLine
 10
301.7674266534453
 20
-94.06425447570905
 30
0.0
 11
301.7674266534453
 21
-278.0642544757091
 31
0.0
  0
LINE
  5
52
330
47
100
AcDbEntity
  8
1
  6
Continuous
 62
     7
100
AcDbLine
 10
429.7674266534457
 20
-248.0642544757091
 30
0.0
 11
429.7674266534457
 21
-243.0642544757091
 31
0.0
  0
LINE
  5
53
330
47
100
AcDbEntity
  8
1
  6
Continuous
 62
     7
100
AcDbLine
 10
411.7674266534456
 20
-248.0642544757091
 30
0.0
 11
411.7674266534456
 21
-243.0642544757091
 31
0.0
  0
LINE
  5
54
330
47
100
AcDbEntity
  8
1
  6
Continuous
 62
     7
100
AcDbLine
 10
404.7674266534456
 20
-243.0642544757091
 30
0.0
 11
588.7674266534456
 21
-243.0642544757091
 31
0.0
  0
LINE
  5
55
330
47
100
AcDbEntity
  8
1
  6
Continuous
 62
     7
100
AcDbLine
 10
429.7674266534457
 20
-253.0642544757091
 30
0.0
 11
429.7674266534457
 21
-248.0642544757091
 31
0.0
  0
LINE
  5
56
330
47
100
AcDbEntity
  8
1
  6
Continuous
 62
     7
100
AcDbLine
 10
411.7674266534456
 20
-253.0642544757091
 30
0.0
 11
411.7674266534456
 21
-248.0642544757091
 31
0.0
  0
LINE
  5
57
330
47
100
AcDbEntity
  8
1
  6
Continuous
 62
     7
100
AcDbLine
 10
404.7674266534456
 20
-248.0642544757091
 30
0.0
 11
588.7674266534456
 21
-248.0642544757091
 31
0.0
  0
LINE
  5
58
330
47
100
AcDbEntity
  8
1
  6
Continuous
 62
     7
100
AcDbLine
 10
429.7674266534457
 20
-258.0642544757091
 30
0.0
 11
429.7674266534457
 21
-253.0642544757091
 31
0.0
  0
LINE
  5
59
330
47
100
AcDbEntity
  8
1
  6
Continuous
 62
     7
100
AcDbLine
 10
411.7674266534456
 20
-258.0642544757091
 30
0.0
 11
411.7674266534456
 21
-253.0642544757091
 31
0.0
  0
LINE
  5
5A
330
47
100
AcDbEntity
  8
1
  6
Continuous
 62
     7
100
AcDbLine
 10
404.7674266534456
 20
-253.0642544757091
 30
0.0
 11
588.7674266534456
 21
-253.0642544757091
 31
0.0
  0
LINE
  5
5B
330
47
100
AcDbEntity
  8
1
  6
Continuous
 62
     7
100
AcDbLine
 10
429.7674266534457
 20
-263.0642544757091
 30
0.0
 11
429.7674266534457
 21
-258.0642544757091
 31
0.0
  0
LINE
  5
5C
330
47
100
AcDbEntity
  8
1
  6
Continuous
 62
     7
100
AcDbLine
 10
411.7674266534456
 20
-263.0642544757091
 30
0.0
 11
411.7674266534456
 21
-258.0642544757091
 31
0.0
  0
LINE
  5
5D
330
47
100
AcDbEntity
  8
1
  6
Continuous
 62
     7
100
AcDbLine
 10
404.7674266534456
 20
-258.0642544757091
 30
0.0
 11
588.7674266534456
 21
-258.0642544757091
 31
0.0
  0
LINE
  5
5E
102
{ACAD_REACTORS
330
A2
102
}
330
47
100
AcDbEntity
  8
1
  6
Continuous
 62
     7
100
AcDbLine
 10
579.6103014933514
 20
-272.5062523953287
 30
0.0
 11
578.2769681600181
 21
-273.2754831645593
 31
0.0
  0
LINE
  5
5F
102
{ACAD_REACTORS
330
A2
102
}
330
47
100
AcDbEntity
  8
1
  6
Continuous
 62
     7
100
AcDbLine
 10
578.4437273421883
 20
-272.4096179430611
 30
0.0
 11
579.277153191025
 21
-271.9287953379628
 31
0.0
  0
LINE
  5
60
102
{ACAD_REACTORS
330
A2
102
}
330
47
100
AcDbEntity
  8
1
  6
Continuous
 62
     7
100
AcDbLine
 10
578.4437273421883
 20
-270.8975878090424
 30
0.0
 11
578.4437273421883
 21
-272.4096179430611
 31
0.0
  0
LINE
  5
61
102
{ACAD_REACTORS
330
A2
102
}
330
47
100
AcDbEntity
  8
1
  6
Continuous
 62
     7
100
AcDbLine
 10
579.4437273421883
 20
-270.8975878090424
 30
0.0
 11
578.4437273421883
 21
-270.8975878090424
 31
0.0
  0
LINE
  5
62
102
{ACAD_REACTORS
330
A2
102
}
330
47
100
AcDbEntity
  8
1
  6
Continuous
 62
     7
100
AcDbLine
 10
578.4437273421883
 20
-270.2309211423758
 30
0.0
 11
579.4437273421883
 21
-270.2309211423758
 31
0.0
  0
LINE
  5
63
102
{ACAD_REACTORS
330
A2
102
}
330
47
100
AcDbEntity
  8
1
  6
Continuous
 62
     7
100
AcDbLine
 10
578.4437273421883
 20
-268.7188910083571
 30
0.0
 11
578.4437273421883
 21
-270.2309211423758
 31
0.0
  0
LINE
  5
64
102
{ACAD_REACTORS
330
A2
102
}
330
47
100
AcDbEntity
  8
1
  6
Continuous
 62
     7
100
AcDbLine
 10
579.277153191025
 20
-269.1997136134553
 30
0.0
 11
578.4437273421883
 21
-268.7188910083571
 31
0.0
  0
LINE
  5
65
102
{ACAD_REACTORS
330
A2
102
}
330
47
100
AcDbEntity
  8
1
  6
Continuous
 62
     7
100
AcDbLine
 10
578.2769681600181
 20
-267.8530257868588
 30
0.0
 11
579.6103014933514
 21
-268.6222565560896
 31
0.0
  0
LINE
  5
66
102
{ACAD_REACTORS
330
A3
102
}
330
47
100
AcDbEntity
  8
1
  6
Continuous
 62
     7
100
AcDbLine
 10
571.1103940088549
 20
-272.2175238666458
 30
0.0
 11
571.1103940088549
 21
-268.9109850847724
 31
0.0
  0
LINE
  5
67
102
{ACAD_REACTORS
330
A3
102
}
330
47
100
AcDbEntity
  8
1
  6
Continuous
 62
     7
100
AcDbLine
 10
571.7770606755215
 20
-272.0250025584458
 30
0.0
 11
571.7770606755215
 21
-272.2175238666458
 31
0.0
  0
LINE
  5
68
102
{ACAD_REACTORS
330
A3
102
}
330
47
100
AcDbEntity
  8
1
  6
Continuous
 62
     7
100
AcDbLine
 10
571.7770606755215
 20
-268.9109850847724
 30
0.0
 11
571.7770606755215
 21
-272.0250025584458
 31
0.0
  0
LINE
  5
69
102
{ACAD_REACTORS
330
A4
102
}
330
47
100
AcDbEntity
  8
1
  6
Continuous
 62
     7
100
AcDbLine
 10
574.9438198576917
 20
-274.6216370107132
 30
0.0
 11
572.7772457065286
 21
-273.3716903850421
 31
0.0
  0
LINE
  5
6A
102
{ACAD_REACTORS
330
A4
102
}
330
47
100
AcDbEntity
  8
1
  6
Continuous
 62
     7
100
AcDbLine
 10
573.1103940088549
 20
-272.7942333276764
 30
0.0
 11
575.2769681600181
 21
-274.0441799533475
 31
0.0
  0
LINE
  5
6B
102
{ACAD_REACTORS
330
A4
102
}
330
47
100
AcDbEntity
  8
1
  6
Continuous
 62
     7
100
AcDbLine
 10
573.1103940088549
 20
-268.1417543155417
 30
0.0
 11
573.1103940088549
 21
-272.7942333276764
 31
0.0
  0
LINE
  5
6C
102
{ACAD_REACTORS
330
A4
102
}
330
47
100
AcDbEntity
  8
1
  6
Continuous
 62
     7
100
AcDbLine
 10
572.4437273421883
 20
-272.7942333276765
 30
0.0
 11
572.4437273421883
 21
-268.1417543155417
 31
0.0
  0
LINE
  5
6D
102
{ACAD_REACTORS
330
A5
102
}
330
47
100
AcDbEntity
  8
1
  6
Continuous
 62
     7
100
AcDbLine
 10
576.6159603252315
 20
-267.2005540574368
 30
0.0
 11
575.4437273421883
 21
-269.2309211423758
 31
0.0
  0
LINE
  5
6E
102
{ACAD_REACTORS
330
A5
102
}
330
47
100
AcDbEntity
  8
1
  6
Continuous
 62
     7
100
AcDbLine
 10
577.1103940088549
 20
-273.7559854051073
 30
0.0
 11
577.1103940088549
 21
-267.3330371636745
 31
0.0
  0
LINE
  5
6F
102
{ACAD_REACTORS
330
A5
102
}
330
47
100
AcDbEntity
  8
1
  6
Continuous
 62
     7
100
AcDbLine
 10
576.4437273421883
 20
-270.5642544757091
 30
0.0
 11
576.4437273421883
 21
-273.7559854051073
 31
0.0
  0
LINE
  5
70
102
{ACAD_REACTORS
330
A5
102
}
330
47
100
AcDbEntity
  8
1
  6
Continuous
 62
     7
100
AcDbLine
 10
574.4437273421883
 20
-272.2166694030761
 30
0.0
 11
574.4437273421883
 21
-270.5642544757091
 31
0.0
  0
LINE
  5
71
102
{ACAD_REACTORS
330
A5
102
}
330
47
100
AcDbEntity
  8
1
  6
Continuous
 62
     7
100
AcDbLine
 10
573.7770606755215
 20
-270.5642544757091
 30
0.0
 11
573.7770606755215
 21
-272.2166694030761
 31
0.0
  0
LINE
  5
72
102
{ACAD_REACTORS
330
A5
102
}
330
47
100
AcDbEntity
  8
1
  6
Continuous
 62
     7
100
AcDbLine
 10
574.271494359145
 20
-267.2005540574368
 30
0.0
 11
575.4437273421883
 21
-269.2309211423758
 31
0.0
  0
LINE
  5
73
102
{ACAD_REACTORS
330
A5
102
}
330
47
100
AcDbEntity
  8
1
  6
Continuous
 62
     7
100
AcDbLine
 10
573.7770606755215
 20
-270.5642544757091
 30
0.0
 11
573.7770606755215
 21
-267.3330371636745
 31
0.0
  0
LINE
  5
74
330
47
100
AcDbEntity
  8
1
  6
Continuous
 62
     7
100
AcDbLine
 10
575.4437273421883
 20
-275.5642544757091
 30
0.0
 11
567.0272920670467
 21
-270.7086187400505
 31
0.0
  0
LINE
  5
75
330
47
100
AcDbEntity
  8
1
  6
Continuous
 62
     7
100
AcDbLine
 10
583.8601626173297
 20
-270.7086187400505
 30
0.0
 11
575.4437273421883
 21
-275.5642544757091
 31
0.0
  0
LINE
  5
76
330
47
100
AcDbEntity
  8
1
  6
Continuous
 62
     7
100
AcDbLine
 10
575.4437273421883
 20
-265.5642544757091
 30
0.0
 11
583.8601626173297
 21
-270.4198902113677
 31
0.0
  0
LINE
  5
77
330
47
100
AcDbEntity
  8
1
  6
Continuous
 62
     7
100
AcDbLine
 10
567.0272920670467
 20
-270.4198902113677
 30
0.0
 11
575.4437273421883
 21
-265.5642544757091
 31
0.0
  0
LINE
  5
78
102
{ACAD_REACTORS
330
A5
102
}
330
47
100
AcDbEntity
  8
1
  6
Continuous
 62
     7
100
AcDbLine
 10
574.4437273421883
 20
-268.8322036681402
 30
0.0
 11
574.4437273421883
 21
-270.5642544757091
 31
0.0
  0
LINE
  5
79
102
{ACAD_REACTORS
330
A5
102
}
330
47
100
AcDbEntity
  8
1
  6
Continuous
 62
     7
100
AcDbLine
 10
575.2993897748908
 20
-270.3142544757091
 30
0.0
 11
574.4437273421883
 21
-268.8322036681402
 31
0.0
  0
LINE
  5
7A
102
{ACAD_REACTORS
330
A5
102
}
330
47
100
AcDbEntity
  8
1
  6
Continuous
 62
     7
100
AcDbLine
 10
576.4437273421883
 20
-268.8322036681402
 30
0.0
 11
575.5880649094856
 21
-270.3142544757091
 31
0.0
  0
LINE
  5
7B
102
{ACAD_REACTORS
330
A5
102
}
330
47
100
AcDbEntity
  8
1
  6
Continuous
 62
     7
100
AcDbLine
 10
576.4437273421883
 20
-270.5642544757091
 30
0.0
 11
576.4437273421883
 21
-268.8322036681402
 31
0.0
  0
LINE
  5
7C
102
{ACAD_REACTORS
330
A2
102
}
330
47
100
AcDbEntity
  8
1
  6
Continuous
 62
     7
100
AcDbLine
 10
577.7770606755216
 20
-272.9867546358764
 30
0.0
 11
577.7770606755216
 21
-268.1417543155417
 31
0.0
  0
LINE
  5
7D
330
47
100
AcDbEntity
  8
1
  6
Continuous
 62
     7
100
AcDbLine
 10
588.7674266534456
 20
-94.06425447570905
 30
0.0
 11
301.7674266534453
 21
-94.06425447570905
 31
0.0
  0
LINE
  5
7E
330
47
100
AcDbEntity
  8
1
  6
Continuous
 62
     7
100
AcDbLine
 10
588.7674266534456
 20
-278.0642544757091
 30
0.0
 11
588.7674266534456
 21
-94.06425447570905
 31
0.0
  0
LINE
  5
7F
330
47
100
AcDbEntity
  8
1
  6
Continuous
 62
     7
100
AcDbLine
 10
301.7674266534453
 20
-278.0642544757091
 30
0.0
 11
588.7674266534456
 21
-278.0642544757091
 31
0.0
  0
LINE
  5
80
330
47
100
AcDbEntity
  8
1
  6
Continuous
 62
     7
100
AcDbLine
 10
593.7674266534456
 20
-283.0642544757091
 30
0.0
 11
593.7674266534456
 21
-73.06425447570894
 31
0.0
  0
LINE
  5
81
330
47
100
AcDbEntity
  8
1
  6
Continuous
 62
     7
100
AcDbLine
 10
593.7674266534456
 20
-73.06425447570894
 30
0.0
 11
296.7674266534455
 21
-73.06425447570894
 31
0.0
  0
LINE
  5
82
330
47
100
AcDbEntity
  8
1
  6
Continuous
 62
     7
100
AcDbLine
 10
296.7674266534455
 20
-73.06425447570894
 30
0.0
 11
296.7674266534455
 21
-283.0642544757091
 31
0.0
  0
LINE
  5
83
330
47
100
AcDbEntity
  8
1
  6
Continuous
 62
     7
100
AcDbLine
 10
296.7674266534455
 20
-283.0642544757091
 30
0.0
 11
593.7674266534456
 21
-283.0642544757091
 31
0.0
  0
LINE
  5
84
330
47
100
AcDbEntity
  8
1
  6
Continuous
 62
     7
100
AcDbLine
 10
445.2674266534452
 20
-73.06425447570894
 30
0.0
 11
445.2674266534452
 21
-88.06425447570894
 31
0.0
  0
LINE
  5
85
330
47
100
AcDbEntity
  8
1
  6
Continuous
 62
     7
100
AcDbLine
 10
434.7674266534456
 20
-263.0642544757091
 30
0.0
 11
434.7674266534456
 21
-278.0642544757091
 31
0.0
  0
LINE
  5
86
330
47
100
AcDbEntity
  8
1
  6
Continuous
 62
     7
100
AcDbLine
 10
562.1200280309309
 20
-263.0642544757091
 30
0.0
 11
562.1200280309309
 21
-278.0642544757091
 31
0.0
  0
LINE
  5
87
330
47
100
AcDbEntity
  8
1
  6
Continuous
 62
     7
100
AcDbLine
 10
544.7674266534456
 20
-263.0642544757091
 30
0.0
 11
544.7674266534456
 21
-278.0642544757091
 31
0.0
  0
LINE
  5
88
330
47
100
AcDbEntity
  8
1
  6
Continuous
 62
     7
100
AcDbLine
 10
404.7674266534456
 20
-268.0642544757092
 30
0.0
 11
434.7674266534456
 21
-268.0642544757092
 31
0.0
  0
LINE
  5
89
330
47
100
AcDbEntity
  8
1
  6
Continuous
 62
     7
100
AcDbLine
 10
404.7674266534456
 20
-273.0642544757092
 30
0.0
 11
434.7674266534456
 21
-273.0642544757092
 31
0.0
  0
ARC
  5
8A
102
{ACAD_REACTORS
330
A2
102
}
330
47
100
AcDbEntity
  8
1
  6
Continuous
 62
     7
100
AcDbCircle
 10
579.4437273421883
 20
-272.2175238666458
 30
0.0
 40
0.3333333333333141
100
AcDbArc
 50
299.9816393688337
 51
119.9816393688409
  0
ARC
  5
8B
102
{ACAD_REACTORS
330
A2
102
}
330
47
100
AcDbEntity
  8
1
  6
Continuous
 62
     7
100
AcDbCircle
 10
579.4437273421883
 20
-270.5642544757091
 30
0.0
 40
0.3333333333333144
100
AcDbArc
 50
270.0
 51
90.0
  0
ARC
  5
8C
102
{ACAD_REACTORS
330
A2
102
}
330
47
100
AcDbEntity
  8
1
  6
Continuous
 62
     7
100
AcDbCircle
 10
579.4437273421883
 20
-268.9109850847724
 30
0.0
 40
0.3333333333333709
100
AcDbArc
 50
240.0183606311493
 51
60.01836063115653
  0
ARC
  5
8D
102
{ACAD_REACTORS
330
A3
102
}
330
47
100
AcDbEntity
  8
1
  6
Continuous
 62
     7
100
AcDbCircle
 10
571.4437273421883
 20
-272.2175238666458
 30
0.0
 40
0.3333333333333712
100
AcDbArc
 50
180.0
 51
0.0
  0
ARC
  5
8E
102
{ACAD_REACTORS
330
A3
102
}
330
47
100
AcDbEntity
  8
1
  6
Continuous
 62
     7
100
AcDbCircle
 10
571.4437273421883
 20
-268.9109850847724
 30
0.0
 40
0.3333333333332575
100
AcDbArc
 50
0.0
 51
180.0
  0
ARC
  5
8F
102
{ACAD_REACTORS
330
A4
102
}
330
47
100
AcDbEntity
  8
1
  6
Continuous
 62
     7
100
AcDbCircle
 10
575.1103940088549
 20
-274.3329084820304
 30
0.0
 40
0.3333333333332724
100
AcDbArc
 50
240.0183606311396
 51
60.01836063114937
  0
ARC
  5
90
102
{ACAD_REACTORS
330
A4
102
}
330
47
100
AcDbEntity
  8
1
  6
Continuous
 62
     7
100
AcDbCircle
 10
572.7770606755215
 20
-268.1417543155417
 30
0.0
 40
0.3333333333333712
100
AcDbArc
 50
0.0
 51
180.0
  0
ARC
  5
91
102
{ACAD_REACTORS
330
A5
102
}
330
47
100
AcDbEntity
  8
1
  6
Continuous
 62
     7
100
AcDbCircle
 10
576.8454277963796
 20
-267.3330371636745
 30
0.0
 40
0.2649662124753149
100
AcDbArc
 50
0.0
 51
149.9999999999863
  0
ARC
  5
92
102
{ACAD_REACTORS
330
A5
102
}
330
47
100
AcDbEntity
  8
1
  6
Continuous
 62
     7
100
AcDbCircle
 10
576.7770606755216
 20
-273.7559854051073
 30
0.0
 40
0.3333333333333712
100
AcDbArc
 50
180.0
 51
0.0
  0
ARC
  5
93
102
{ACAD_REACTORS
330
A5
102
}
330
47
100
AcDbEntity
  8
1
  6
Continuous
 62
     7
100
AcDbCircle
 10
574.1103940088549
 20
-272.2166694030761
 30
0.0
 40
0.3333333333333712
100
AcDbArc
 50
180.0
 51
0.0
  0
ARC
  5
94
102
{ACAD_REACTORS
330
A5
102
}
330
47
100
AcDbEntity
  8
1
  6
Continuous
 62
     7
100
AcDbCircle
 10
574.0420268879968
 20
-267.3330371636745
 30
0.0
 40
0.2649662124753035
100
AcDbArc
 50
30.00000000000143
 51
180.0
  0
ARC
  5
95
102
{ACAD_REACTORS
330
A2
102
}
330
47
100
AcDbEntity
  8
1
  6
Continuous
 62
     7
100
AcDbCircle
 10
578.1103940088549
 20
-272.9867546358764
 30
0.0
 40
0.3333333333332575
100
AcDbArc
 50
180.0
 51
299.9816393688506
  0
ARC
  5
96
102
{ACAD_REACTORS
330
A2
102
}
330
47
100
AcDbEntity
  8
1
  6
Continuous
 62
     7
100
AcDbCircle
 10
578.1103940088549
 20
-268.1417543155417
 30
0.0
 40
0.3333333333333709
100
AcDbArc
 50
60.01836063114937
 51
180.0
  0
ARC
  5
97
330
47
100
AcDbEntity
  8
1
  6
Continuous
 62
     7
100
AcDbCircle
 10
583.7768755417482
 20
-270.5642544757091
 30
0.0
 40
0.1666666666666078
100
AcDbArc
 50
299.9816393688434
 51
60.01836063115653
  0
ARC
  5
98
330
47
100
AcDbEntity
  8
1
  6
Continuous
 62
     7
100
AcDbCircle
 10
567.1105791426284
 20
-270.5642544757091
 30
0.0
 40
0.1666666666666646
100
AcDbArc
 50
119.9816393688773
 51
240.0183606311227
  0
ARC
  5
99
102
{ACAD_REACTORS
330
A4
102
}
330
47
100
AcDbEntity
  8
1
  6
Continuous
 62
     7
100
AcDbCircle
 10
573.1103940088549
 20
-272.7942333276764
 30
0.0
 40
0.6666666666666288
100
AcDbArc
 50
180.0000000000097
 51
240.018360631153
  0
ARC
  5
9A
102
{ACAD_REACTORS
330
A5
102
}
330
47
100
AcDbEntity
  8
1
  6
Continuous
 62
     7
100
AcDbCircle
 10
575.4437273421883
 20
-270.2309211423758
 30
0.0
 40
0.1666666666667365
100
AcDbArc
 50
209.9999999999786
 51
330.0000000000019
  0
MTEXT
  5
9C
330
47
100
AcDbEntity
  8
1
 62
     7
100
AcDbMText
 10
553.4437273421883
 20
-266.8036150549531
 30
0.0
 40
3.0
 41
0.0
 71
     5
 72
     1
  1
Scale
  7
CONVERTER_11
 73
     1
 44
1.32052821128451
  0
MTEXT
  5
9D
330
47
100
AcDbEntity
  8
1
 62
     7
100
AcDbMText
 10
448.2674266534452
 20
-89.06425447570894
 30
0.0
 40
4.0
 41
0.0
 71
     5
 72
     1
  1
Diritti riservati      All rights reserved
  7
CONVERTER_11
 73
     1
 44
1.32052821128451
  0
MTEXT
  5
9F
330
47
100
AcDbEntity
  8
1
 62
     7
100
AcDbMText
 10
419.7674266534456
 20
-265.5642544757091
 30
0.0
 40
2.5
 41
0.0
 71
     5
 72
     1
  1
dimensions in mm
  7
CONVERTER_12
 73
     1
 44
0.60024009603842
  0
MTEXT
  5
A0
330
47
100
AcDbEntity
  8
1
 62
     7
100
AcDbMText
 10
405.7674266534456
 20
-270.5642544757092
 30
0.0
 40
3.0
 41
0.0
 71
     4
 72
     1
  1
Date
  7
CONVERTER_11
 73
     1
 44
1.32052821128451
  0
MTEXT
  5
A1
330
47
100
AcDbEntity
  8
1
 62
     7
100
AcDbMText
 10
405.7674266534456
 20
-275.5642544757092
 30
0.0
 40
3.0
 41
0.0
 71
     4
 72
     1
  1
Sign.
  7
CONVERTER_11
 73
     1
 44
1.32052821128451
  0
HATCH
  5
A2
330
47
100
AcDbEntity
  8
1
  6
Continuous
 62
     7
100
AcDbHatch
 10
0.0
 20
0.0
 30
0.0
210
0.0
220
0.0
230
1.0
  2
SOLID
 70
     1
 71
     1
 91
        1
 92
        1
 93
       14
 72
     2
 10
578.1103940088549
 20
-268.1417543155417
 40
0.3333333333333709
 50
60.01836063114937
 51
180.0
 73
     1
 72
     1
 10
577.7770606755216
 20
-268.1417543155417
 11
577.7770606755216
 21
-272.9867546358764
 72
     2
 10
578.1103940088549
 20
-272.9867546358764
 40
0.3333333333332575
 50
180.0
 51
299.9816393688506
 73
     1
 72
     1
 10
578.2769681600181
 20
-273.2754831645593
 11
579.6103014933514
 21
-272.5062523953287
 72
     2
 10
579.4437273421883
 20
-272.2175238666458
 40
0.3333333333333141
 50
299.9816393688337
 51
479.9816393688409
 73
     1
 72
     1
 10
579.277153191025
 20
-271.9287953379628
 11
578.4437273421883
 21
-272.4096179430611
 72
     1
 10
578.4437273421883
 20
-272.4096179430611
 11
578.4437273421883
 21
-270.8975878090424
 72
     1
 10
578.4437273421883
 20
-270.8975878090424
 11
579.4437273421883
 21
-270.8975878090424
 72
     2
 10
579.4437273421883
 20
-270.5642544757091
 40
0.3333333333333144
 50
270.0
 51
450.0
 73
     1
 72
     1
 10
579.4437273421883
 20
-270.2309211423758
 11
578.4437273421883
 21
-270.2309211423758
 72
     1
 10
578.4437273421883
 20
-270.2309211423758
 11
578.4437273421883
 21
-268.7188910083571
 72
     1
 10
578.4437273421883
 20
-268.7188910083571
 11
579.277153191025
 21
-269.1997136134553
 72
     2
 10
579.4437273421883
 20
-268.9109850847724
 40
0.3333333333333709
 50
240.0183606311493
 51
420.0183606311565
 73
     1
 72
     1
 10
579.6103014933514
 20
-268.6222565560896
 11
578.2769681600181
 21
-267.8530257868588
 97
       14
330
8C
330
64
330
63
330
62
330
8B
330
61
330
60
330
5F
330
8A
330
5E
330
95
330
7C
330
96
330
65
 75
     0
 76
     1
 98
        1
 10
0.0
 20
0.0
  0
HATCH
  5
A3
330
47
100
AcDbEntity
  8
1
  6
Continuous
 62
     7
100
AcDbHatch
 10
0.0
 20
0.0
 30
0.0
210
0.0
220
0.0
230
1.0
  2
SOLID
 70
     1
 71
     1
 91
        1
 92
        1
 93
        5
 72
     2
 10
571.4437273421883
 20
-268.9109850847724
 40
0.3333333333332575
 50
0.0
 51
180.0
 73
     1
 72
     1
 10
571.1103940088549
 20
-268.9109850847724
 11
571.1103940088549
 21
-272.2175238666458
 72
     2
 10
571.4437273421883
 20
-272.2175238666458
 40
0.3333333333333712
 50
180.0
 51
360.0
 73
     1
 72
     1
 10
571.7770606755215
 20
-272.2175238666458
 11
571.7770606755215
 21
-272.0250025584458
 72
     1
 10
571.7770606755215
 20
-272.0250025584458
 11
571.7770606755215
 21
-268.9109850847724
 97
        5
330
8E
330
66
330
8D
330
67
330
68
 75
     0
 76
     1
 98
        1
 10
0.0
 20
0.0
  0
HATCH
  5
A4
330
47
100
AcDbEntity
  8
1
  6
Continuous
 62
     7
100
AcDbHatch
 10
0.0
 20
0.0
 30
0.0
210
0.0
220
0.0
230
1.0
  2
SOLID
 70
     1
 71
     1
 91
        1
 92
        1
 93
        7
 72
     2
 10
572.7770606755215
 20
-268.1417543155417
 40
0.3333333333333712
 50
0.0
 51
180.0
 73
     1
 72
     1
 10
572.4437273421883
 20
-268.1417543155417
 11
572.4437273421883
 21
-272.7942333276765
 72
     2
 10
573.1103940088549
 20
-272.7942333276764
 40
0.6666666666666288
 50
180.0000000000097
 51
240.018360631153
 73
     1
 72
     1
 10
572.7772457065286
 20
-273.3716903850421
 11
574.9438198576917
 21
-274.6216370107132
 72
     2
 10
575.1103940088549
 20
-274.3329084820304
 40
0.3333333333332724
 50
240.0183606311396
 51
420.0183606311494
 73
     1
 72
     1
 10
575.2769681600181
 20
-274.0441799533475
 11
573.1103940088549
 21
-272.7942333276764
 72
     1
 10
573.1103940088549
 20
-272.7942333276764
 11
573.1103940088549
 21
-268.1417543155417
 97
        7
330
90
330
6C
330
99
330
69
330
8F
330
6A
330
6B
 75
     0
 76
     1
 98
        1
 10
0.0
 20
0.0
  0
HATCH
  5
A5
330
47
100
AcDbEntity
  8
1
  6
Continuous
 62
     7
100
AcDbHatch
 10
0.0
 20
0.0
 30
0.0
210
0.0
220
0.0
230
1.0
  2
SOLID
 70
     1
 71
     1
 91
        1
 92
        1
 93
       16
 72
     2
 10
576.8454277963796
 20
-267.3330371636745
 40
0.2649662124753149
 50
210.0000000000137
 51
360.0
 73
     0
 72
     1
 10
577.1103940088549
 20
-267.3330371636745
 11
577.1103940088549
 21
-273.7559854051073
 72
     2
 10
576.7770606755216
 20
-273.7559854051073
 40
0.3333333333333712
 50
0.0
 51
180.0
 73
     0
 72
     1
 10
576.4437273421883
 20
-273.7559854051073
 11
576.4437273421883
 21
-270.5642544757091
 72
     1
 10
576.4437273421883
 20
-270.5642544757091
 11
576.4437273421883
 21
-268.8322036681402
 72
     1
 10
576.4437273421883
 20
-268.8322036681402
 11
575.5880649094856
 21
-270.3142544757091
 72
     2
 10
575.4437273421883
 20
-270.2309211423758
 40
0.1666666666667365
 50
29.99999999999813
 51
150.0000000000214
 73
     0
 72
     1
 10
575.2993897748908
 20
-270.3142544757091
 11
574.4437273421883
 21
-268.8322036681402
 72
     1
 10
574.4437273421883
 20
-268.8322036681402
 11
574.4437273421883
 21
-270.5642544757091
 72
     1
 10
574.4437273421883
 20
-270.5642544757091
 11
574.4437273421883
 21
-272.2166694030761
 72
     2
 10
574.1103940088549
 20
-272.2166694030761
 40
0.3333333333333712
 50
0.0
 51
180.0
 73
     0
 72
     1
 10
573.7770606755215
 20
-272.2166694030761
 11
573.7770606755215
 21
-270.5642544757091
 72
     1
 10
573.7770606755215
 20
-270.5642544757091
 11
573.7770606755215
 21
-267.3330371636745
 72
     2
 10
574.0420268879968
 20
-267.3330371636745
 40
0.2649662124753035
 50
180.0
 51
329.9999999999985
 73
     0
 72
     1
 10
574.271494359145
 20
-267.2005540574368
 11
575.4437273421883
 21
-269.2309211423758
 72
     1
 10
575.4437273421883
 20
-269.2309211423758
 11
576.6159603252315
 21
-267.2005540574368
 97
       16
330
72
330
94
330
73
330
71
330
93
330
70
330
78
330
79
330
9A
330
7A
330
7B
330
6F
330
92
330
6E
330
91
330
6D
 75
     0
 76
     1
 98
        1
 10
0.0
 20
0.0
  0
ENDBLK
  5
49
330
47
100
AcDbEntity
  8
0
100
AcDbBlockEnd
  0
BLOCK
  5
4C
330
4A
100
AcDbEntity
  8
0
100
AcDbBlockBegin
  2
A4_oriz
 70
     0
 10
1718.704853306891
 20
-830.7285089514182
 30
0.0
  3
A4_oriz
  1

  0
INSERT
  5
4B
330
4A
100
AcDbEntity
  8
1
100
AcDbBlockReference
  2
_formato_A4
 10
1718.704853306891
 20
-830.7285089514183
 30
0.0
 41
5.0
 42
5.0
 43
5.0
  0
ENDBLK
  5
4D
330
4A
100
AcDbEntity
  8
0
100
AcDbBlockEnd
  0
BLOCK
  5
2C6
330
2BC
100
AcDbEntity
  8
0
100
AcDbBlockBegin
  2
*D3
 70
     1
 10
0.0
 20
0.0
 30
0.0
  3
*D3
  1

  0
LINE
  5
2BD
330
2BC
100
AcDbEntity
  8
1
  6
Continuous
 62
     2
100
AcDbLine
 10
1357.543437687252
 20
-366.2380388920352
 30
0.0
 11
1387.543437687252
 21
-366.2380388920352
 31
0.0
  0
LINE
  5
2BE
330
2BC
100
AcDbEntity
  8
1
  6
Continuous
 62
     2
100
AcDbLine
 10
1311.043437687412
 20
-366.2380388920352
 30
0.0
 11
1357.543437687252
 21
-366.2380388920352
 31
0.0
  0
LINE
  5
2BF
330
2BC
100
AcDbEntity
  8
1
  6
Continuous
 62
     2
100
AcDbLine
 10
1258.668437687332
 20
-366.2380388920352
 30
0.0
 11
1311.043437687412
 21
-366.2380388920352
 31
0.0
  0
LINE
  5
2C0
330
2BC
100
AcDbEntity
  8
1
  6
Continuous
 62
     2
100
AcDbLine
 10
1357.543437687252
 20
-284.3000275886799
 30
0.0
 11
1357.543437687252
 21
-371.2380388920352
 31
0.0
  0
LINE
  5
2C1
330
2BC
100
AcDbEntity
  8
1
  6
Continuous
 62
     2
100
AcDbLine
 10
1311.043437687412
 20
-294.0402654242109
 30
0.0
 11
1311.043437687412
 21
-371.2380388920352
 31
0.0
  0
SOLID
  5
2C2
330
2BC
100
AcDbEntity
  8
1
 62
     2
100
AcDbTrace
 10
1296.043437687412
 20
-368.2128263558461
 30
0.0
 11
1296.043437687412
 21
-364.2632514282243
 31
0.0
 12
1311.043437687412
 22
-366.2380388920352
 32
0.0
 13
1311.043437687412
 23
-366.2380388920352
 33
0.0
  0
SOLID
  5
2C3
330
2BC
100
AcDbEntity
  8
1
 62
     2
100
AcDbTrace
 10
1372.543437687252
 20
-364.2632514282243
 30
0.0
 11
1372.543437687252
 21
-368.2128263558461
 31
0.0
 12
1357.543437687252
 22
-366.2380388920352
 32
0.0
 13
1357.543437687252
 23
-366.2380388920352
 33
0.0
  0
MTEXT
  5
2C5
330
2BC
100
AcDbEntity
  8
1
 62
     4
100
AcDbMText
 10
1258.668437687332
 20
-354.7380388920352
 30
0.0
 40
15.0
 41
0.0
 71
     7
 72
     1
  1
46,5
  7
CONVERTER_13
 11
0.9999999999970619
 21
2.424068405545306E-6
 31
0.0
 73
     1
 44
0.60024009603842
  0
ENDBLK
  5
2C7
330
2BC
100
AcDbEntity
  8
0
100
AcDbBlockEnd
  0
BLOCK
  5
2D1
330
2CA
100
AcDbEntity
  8
0
100
AcDbBlockBegin
  2
*D4
 70
     1
 10
0.0
 20
0.0
 30
0.0
  3
*D4
  1

  0
LINE
  5
2CB
330
2CA
100
AcDbEntity
  8
1
  6
Continuous
 62
     2
100
AcDbLine
 10
588.6642034119242
 20
-366.2380388920352
 30
0.0
 11
933.664203411966
 21
-366.2380388920352
 31
0.0
  0
LINE
  5
2CC
330
2CA
100
AcDbEntity
  8
1
  6
Continuous
 62
     2
100
AcDbLine
 10
933.664203411966
 20
-287.0426641493819
 30
0.0
 11
933.664203411966
 21
-371.2380388920352
 31
0.0
  0
LINE
  5
2CD
330
2CA
100
AcDbEntity
  8
1
  6
Continuous
 62
     2
100
AcDbLine
 10
588.6642034119242
 20
-287.0426641493821
 30
0.0
 11
588.6642034119242
 21
-371.2380388920352
 31
0.0
  0
SOLID
  5
2CE
330
2CA
100
AcDbEntity
  8
1
 62
     2
100
AcDbTrace
 10
603.6642034119242
 20
-364.2632514282243
 30
0.0
 11
603.6642034119242
 21
-368.2128263558461
 31
0.0
 12
588.6642034119242
 22
-366.2380388920352
 32
0.0
 13
588.6642034119242
 23
-366.2380388920352
 33
0.0
  0
SOLID
  5
2CF
330
2CA
100
AcDbEntity
  8
1
 62
     2
100
AcDbTrace
 10
918.664203411966
 20
-368.2128263558461
 30
0.0
 11
918.664203411966
 21
-364.2632514282243
 31
0.0
 12
933.664203411966
 22
-366.2380388920352
 32
0.0
 13
933.664203411966
 23
-366.2380388920352
 33
0.0
  0
MTEXT
  5
2D0
330
2CA
100
AcDbEntity
  8
1
 62
     4
100
AcDbMText
 10
743.1642034119451
 20
-356.2380388920352
 30
0.0
 40
15.0
 41
0.0
 71
     7
 72
     1
  1
345
  7
CONVERTER_13
 11
0.9999999999970619
 21
2.424068405545306E-6
 31
0.0
 73
     1
 44
0.60024009603842
  0
ENDBLK
  5
2D2
330
2CA
100
AcDbEntity
  8
0
100
AcDbBlockEnd
  0
BLOCK
  5
2DC
330
2D5
100
AcDbEntity
  8
0
100
AcDbBlockBegin
  2
*D5
 70
     1
 10
0.0
 20
0.0
 30
0.0
  3
*D5
  1

  0
LINE
  5
2D6
330
2D5
100
AcDbEntity
  8
1
  6
Continuous
 62
     2
100
AcDbLine
 10
998.5687419322836
 20
-107.540265424196
 30
0.0
 11
998.5687419322836
 21
-291.5402654242108
 31
0.0
  0
LINE
  5
2D7
330
2D5
100
AcDbEntity
  8
1
  6
Continuous
 62
     2
100
AcDbLine
 10
929.1666021371371
 20
-291.5402654242108
 30
0.0
 11
1003.568741932284
 21
-291.5402654242108
 31
0.0
  0
LINE
  5
2D8
330
2D5
100
AcDbEntity
  8
1
  6
Continuous
 62
     2
100
AcDbLine
 10
929.1666021371374
 20
-107.540265424196
 30
0.0
 11
1003.568741932284
 21
-107.540265424196
 31
0.0
  0
SOLID
  5
2D9
330
2D5
100
AcDbEntity
  8
1
 62
     2
100
AcDbTrace
 10
1000.543529396095
 20
-122.540265424196
 30
0.0
 11
996.5939544684727
 21
-122.540265424196
 31
0.0
 12
998.5687419322836
 22
-107.540265424196
 32
0.0
 13
998.5687419322836
 23
-107.540265424196
 33
0.0
  0
SOLID
  5
2DA
330
2D5
100
AcDbEntity
  8
1
 62
     2
100
AcDbTrace
 10
996.5939544684727
 20
-276.5402654242108
 30
0.0
 11
1000.543529396095
 21
-276.5402654242108
 31
0.0
 12
998.5687419322836
 22
-291.5402654242108
 32
0.0
 13
998.5687419322836
 23
-291.5402654242108
 33
0.0
  0
MTEXT
  5
2DB
330
2D5
100
AcDbEntity
  8
1
 62
     4
100
AcDbMText
 10
988.5687419322836
 20
-216.0402654242034
 30
0.0
 40
15.0
 41
0.0
 71
     7
 72
     1
  1
184
  7
CONVERTER_13
 11
0.0
 21
1.0
 31
0.0
 73
     1
 44
0.60024009603842
  0
ENDBLK
  5
2DD
330
2D5
100
AcDbEntity
  8
0
100
AcDbBlockEnd
  0
ENDSEC
  0
SECTION
  2
ENTITIES
  0
INSERT
  5
4E
330
1F
100
AcDbEntity
  8
0
100
AcDbBlockReference
  2
A4_oriz
 10
1718.704853306891
 20
-830.7285089514181
 30
0.0
 41
1.0
 42
1.0
 43
1.0
  0
LINE
  5
A6
330
1F
100
AcDbEntity
  8
0
  6
Continuous
 62
     7
100
AcDbLine
 10
588.6642034119242
 20
-114.537866699025
 30
0.0
 11
588.6642034119242
 21
-284.542664149382
 31
0.0
  0
LINE
  5
A7
330
1F
100
AcDbEntity
  8
0
  6
Continuous
 62
     7
100
AcDbLine
 10
590.4859155011026
 20
-130.3116830324706
 30
0.0
 11
590.5046208199556
 21
-130.3135500636494
 31
0.0
  0
LINE
  5
A8
330
1F
100
AcDbEntity
  8
0
  6
Continuous
 62
     7
100
AcDbLine
 10
926.6666021371371
 20
-291.5402654242109
 30
0.0
 11
595.6618046867533
 21
-291.5402654242109
 31
0.0
  0
LINE
  5
A9
330
1F
100
AcDbEntity
  8
0
  6
Continuous
 62
     7
100
AcDbLine
 10
603.2951330198274
 20
-117.0402654242036
 30
0.0
 11
603.2951330198274
 21
-116.1525831577921
 31
0.0
  0
LINE
  5
AA
330
1F
100
AcDbEntity
  8
0
  6
Continuous
 62
     7
100
AcDbLine
 10
603.2951330198274
 20
-117.0402654242036
 30
0.0
 11
603.4117574796891
 21
-117.0402654242036
 31
0.0
  0
LINE
  5
AB
330
1F
100
AcDbEntity
  8
0
  6
Continuous
 62
     7
100
AcDbLine
 10
614.9142034119528
 20
-133.9231589396955
 30
0.0
 11
614.9142034119512
 21
-133.8578913917249
 31
0.0
  0
LINE
  5
AC
330
1F
100
AcDbEntity
  8
0
  6
Continuous
 62
     7
100
AcDbLine
 10
614.9142034119528
 20
-117.7638180884184
 30
0.0
 11
707.1497616644339
 21
-117.7638180884184
 31
0.0
  0
LINE
  5
AD
330
1F
100
AcDbEntity
  8
0
  6
Continuous
 62
     7
100
AcDbLine
 10
614.9142034119512
 20
-133.8578913917249
 30
0.0
 11
614.9142034119528
 21
-117.7638180884184
 31
0.0
  0
LINE
  5
AE
330
1F
100
AcDbEntity
  8
0
  6
Continuous
 62
     7
100
AcDbLine
 10
596.9434925343254
 20
-122.1711950320496
 30
0.0
 11
598.1642034119814
 21
-122.1711950320496
 31
0.0
  0
LINE
  5
AF
330
1F
100
AcDbEntity
  8
0
  6
Continuous
 62
     2
100
AcDbLine
 10
598.1642034119747
 20
-122.9485893549449
 30
0.0
 11
597.8769493387842
 21
-122.9485893521537
 31
0.0
  0
LINE
  5
B0
330
1F
100
AcDbEntity
  8
0
  6
Continuous
 62
     7
100
AcDbLine
 10
720.1786451594164
 20
-117.7638180884185
 30
0.0
 11
907.4142034119526
 21
-117.7638180884185
 31
0.0
  0
LINE
  5
B1
330
1F
100
AcDbEntity
  8
0
  6
Continuous
 62
     7
100
AcDbLine
 10
924.1642034119342
 20
-122.1711950320496
 30
0.0
 11
925.3849142895652
 21
-122.1711950320496
 31
0.0
  0
LINE
  5
B2
330
1F
100
AcDbEntity
  8
0
  6
Continuous
 62
     7
100
AcDbLine
 10
907.4142034119444
 20
-133.923158939695
 30
0.0
 11
907.4142034119508
 21
-121.2354208826546
 31
0.0
  0
LINE
  5
B3
330
1F
100
AcDbEntity
  8
0
  6
Continuous
 62
     2
100
AcDbLine
 10
924.4514574851045
 20
-122.9485893521536
 30
0.0
 11
924.1642034119274
 21
-122.9485893549449
 31
0.0
  0
LINE
  5
B4
330
1F
100
AcDbEntity
  8
0
  6
Continuous
 62
     7
100
AcDbLine
 10
595.6618046867533
 20
-107.5402654241961
 30
0.0
 11
926.6666021371374
 21
-107.540265424196
 31
0.0
  0
LINE
  5
B5
330
1F
100
AcDbEntity
  8
0
  6
Continuous
 62
     7
100
AcDbLine
 10
911.13050750434
 20
-107.8283105614864
 30
0.0
 11
611.1978993195759
 21
-107.8283105614865
 31
0.0
  0
LINE
  5
B6
330
1F
100
AcDbEntity
  8
0
  6
Continuous
 62
     7
100
AcDbLine
 10
1321.556526161565
 20
-107.815560334428
 30
0.0
 11
1311.043437687287
 21
-107.5402654241961
 31
0.0
  0
LINE
  5
B7
330
1F
100
AcDbEntity
  8
0
  6
Continuous
 62
     7
100
AcDbLine
 10
1329.011992573896
 20
-110.8653821531146
 30
0.0
 11
1352.806026360447
 21
-121.2354208826995
 31
0.0
  0
LINE
  5
B8
330
1F
100
AcDbEntity
  8
0
  6
Continuous
 62
     7
100
AcDbLine
 10
1311.043437687412
 20
-291.5402654242109
 30
0.0
 11
1322.043437687333
 21
-291.2522202869454
 31
0.0
  0
LINE
  5
B9
330
1F
100
AcDbEntity
  8
0
  6
Continuous
 62
     7
100
AcDbLine
 10
1322.043437687333
 20
-291.2522202869454
 30
0.0
 11
1322.043578492782
 21
-291.2522129076518
 31
0.0
  0
LINE
  5
BA
330
1F
100
AcDbEntity
  8
0
  6
Continuous
 62
     7
100
AcDbLine
 10
1335.543437687383
 20
-290.0702329832691
 30
0.0
 11
1335.543437687413
 21
-283.5791406879741
 31
0.0
  0
LINE
  5
BB
330
1F
100
AcDbEntity
  8
0
  6
Continuous
 62
     7
100
AcDbLine
 10
1311.043437687413
 20
-114.5378666990251
 30
0.0
 11
1311.043437687287
 21
-107.5402654241961
 31
0.0
  0
LINE
  5
BC
330
1F
100
AcDbEntity
  8
0
  6
Continuous
 62
     7
100
AcDbLine
 10
1311.043437687413
 20
-114.5378666990251
 30
0.0
 11
1311.043437687412
 21
-291.5402654242109
 31
0.0
  0
LINE
  5
BD
330
1F
100
AcDbEntity
  8
0
  6
Continuous
 62
     7
100
AcDbLine
 10
1322.04343768741
 20
-116.1525831577921
 30
0.0
 11
1322.043437687413
 21
-117.0402654242176
 31
0.0
  0
LINE
  5
BE
330
1F
100
AcDbEntity
  8
0
  6
Continuous
 62
     7
100
AcDbLine
 10
1322.043437687413
 20
-117.0402654242176
 30
0.0
 11
1322.043437687411
 21
-121.6841165965886
 31
0.0
  0
LINE
  5
BF
330
1F
100
AcDbEntity
  8
0
  6
Continuous
 62
     7
100
AcDbLine
 10
1335.543437687413
 20
-137.3020068082593
 30
0.0
 11
1335.543437687341
 21
-137.427343859652
 31
0.0
  0
LINE
  5
C0
330
1F
100
AcDbEntity
  8
0
  6
Continuous
 62
     7
100
AcDbLine
 10
1335.543437687413
 20
-283.5791406879741
 30
0.0
 11
1335.543437687341
 21
-137.427343859652
 31
0.0
  0
LINE
  5
C1
330
1F
100
AcDbEntity
  8
0
  6
Continuous
 62
     7
100
AcDbLine
 10
1322.043437687412
 20
-108.3153889969157
 30
0.0
 11
1322.043437687413
 21
-114.8259118362837
 31
0.0
  0
LINE
  5
C2
330
1F
100
AcDbEntity
  8
0
  6
Continuous
 62
     7
100
AcDbLine
 10
1322.043437687413
 20
-114.8259118362837
 30
0.0
 11
1322.04343768741
 21
-116.1525831577921
 31
0.0
  0
LINE
  5
C3
330
1F
100
AcDbEntity
  8
0
  6
Continuous
 62
     7
100
AcDbLine
 10
1336.030349213187
 20
-136.9275151971643
 30
0.0
 11
1349.819203971689
 21
-136.5664413279292
 31
0.0
  0
LINE
  5
C4
330
1F
100
AcDbEntity
  8
0
  6
Continuous
 62
     7
100
AcDbLine
 10
1322.530349213257
 20
-122.1839452590765
 30
0.0
 11
1351.730929038448
 21
-122.9485893521537
 31
0.0
  0
LINE
  5
C5
330
1F
100
AcDbEntity
  8
0
  6
Continuous
 62
     7
100
AcDbLine
 10
1322.54343768741
 20
-108.0462231445592
 30
0.0
 11
1329.011992573896
 21
-110.8653821531146
 31
0.0
  0
LINE
  5
C6
330
1F
100
AcDbEntity
  8
0
  6
Continuous
 62
     7
100
AcDbLine
 10
1335.069605665505
 20
-290.5695477506466
 30
0.0
 11
1322.043578492782
 21
-291.2522129076518
 31
0.0
  0
LINE
  5
C7
330
1F
100
AcDbEntity
  8
1
  6
Continuous
 62
     7
100
AcDbLine
 10
1322.043437687411
 20
-107.8283105614547
 30
0.0
 11
1322.043437687412
 21
-108.3153889969157
 31
0.0
  0
LINE
  5
C8
330
1F
100
AcDbEntity
  8
1
  6
Continuous
 62
     7
100
AcDbLine
 10
1322.043437687411
 20
-107.8283105614547
 30
0.0
 11
1321.556526161565
 21
-107.815560334428
 31
0.0
  0
LINE
  5
C9
330
1F
100
AcDbEntity
  8
0
  6
Continuous
 62
     7
100
AcDbLine
 10
1322.043437687411
 20
-122.1711950320496
 30
0.0
 11
1322.043437687335
 21
-284.2546190121229
 31
0.0
  0
LINE
  5
CA
330
1F
100
AcDbEntity
  8
1
  6
Continuous
 62
     7
100
AcDbLine
 10
1322.043437687411
 20
-121.6841165965886
 30
0.0
 11
1322.043437687411
 21
-122.1711950320496
 31
0.0
  0
LINE
  5
CB
330
1F
100
AcDbEntity
  8
0
  6
Continuous
 62
     7
100
AcDbLine
 10
1322.043437687411
 20
-107.8283105614547
 30
0.0
 11
1322.54343768741
 21
-108.0462231445592
 31
0.0
  0
LINE
  5
CC
330
1F
100
AcDbEntity
  8
0
  6
Continuous
 62
     2
100
AcDbLine
 10
924.1642034119342
 20
-122.1711950320496
 30
0.0
 11
924.1642034119274
 21
-122.9485893549449
 31
0.0
  0
LINE
  5
CD
330
1F
100
AcDbEntity
  8
0
  6
Continuous
 62
     7
100
AcDbLine
 10
933.664203411966
 20
-284.5426641493819
 30
0.0
 11
933.664203411966
 21
-114.5378666990251
 31
0.0
  0
LINE
  5
CE
330
1F
100
AcDbEntity
  8
1
  6
Continuous
 62
     2
100
AcDbLine
 10
931.7875493744226
 20
-129.6502622705373
 30
0.0
 11
931.8237860039347
 21
-130.3135500636494
 31
0.0
  0
LINE
  5
CF
330
1F
100
AcDbEntity
  8
0
  6
Continuous
 62
     7
100
AcDbLine
 10
907.4142034119526
 20
-117.7638180884185
 30
0.0
 11
907.4142034119508
 21
-121.2354208826546
 31
0.0
  0
LINE
  5
D0
330
1F
100
AcDbEntity
  8
1
  6
Continuous
 62
     2
100
AcDbLine
 10
589.7027930095236
 20
-136.9275154884979
 30
0.0
 11
591.223102323262
 21
-136.9275154884979
 31
0.0
  0
LINE
  5
D1
330
1F
100
AcDbEntity
  8
1
  6
Continuous
 62
     7
100
AcDbLine
 10
908.1239655763897
 20
-204.4231372010214
 30
0.0
 11
908.1239655763897
 21
-210.4231372010214
 31
0.0
  0
LINE
  5
D2
330
1F
100
AcDbEntity
  8
1
  6
Continuous
 62
     7
100
AcDbLine
 10
908.1239655763897
 20
-210.4231372010214
 30
0.0
 11
914.1239655763897
 21
-210.4231372010214
 31
0.0
  0
LINE
  5
D3
330
1F
100
AcDbEntity
  8
1
  6
Continuous
 62
     7
100
AcDbLine
 10
914.1239655763897
 20
-210.4231372010214
 30
0.0
 11
914.1239655763897
 21
-204.4231372010214
 31
0.0
  0
LINE
  5
D4
330
1F
100
AcDbEntity
  8
1
  6
Continuous
 62
     7
100
AcDbLine
 10
914.1239655763897
 20
-204.4231372010214
 30
0.0
 11
908.1239655763897
 21
-204.4231372010214
 31
0.0
  0
LINE
  5
D5
330
1F
100
AcDbEntity
  8
1
  6
Continuous
 62
     7
100
AcDbLine
 10
909.6239655763897
 20
-205.9231372010214
 30
0.0
 11
909.6239655763897
 21
-208.9231372010214
 31
0.0
  0
LINE
  5
D6
330
1F
100
AcDbEntity
  8
1
  6
Continuous
 62
     7
100
AcDbLine
 10
909.6239655763897
 20
-208.9231372010214
 30
0.0
 11
912.6239655763897
 21
-208.9231372010214
 31
0.0
  0
LINE
  5
D7
330
1F
100
AcDbEntity
  8
1
  6
Continuous
 62
     7
100
AcDbLine
 10
912.6239655763897
 20
-208.9231372010214
 30
0.0
 11
912.6239655763897
 21
-205.9231372010214
 31
0.0
  0
LINE
  5
D8
330
1F
100
AcDbEntity
  8
1
  6
Continuous
 62
     7
100
AcDbLine
 10
912.6239655763897
 20
-205.9231372010214
 30
0.0
 11
909.6239655763897
 21
-205.9231372010214
 31
0.0
  0
LINE
  5
D9
330
1F
100
AcDbEntity
  8
0
  6
Continuous
 62
     2
100
AcDbLine
 10
903.5239655763893
 20
-279.1107897868914
 30
0.0
 11
903.5239655763893
 21
-221.6231372010214
 31
0.0
  0
LINE
  5
DA
330
1F
100
AcDbEntity
  8
0
  6
Continuous
 62
     2
100
AcDbLine
 10
905.9239655763894
 20
-146.2232897834026
 30
0.0
 11
905.9239655763894
 21
-137.6231589405124
 31
0.0
  0
LINE
  5
DB
330
1F
100
AcDbEntity
  8
0
  6
Continuous
 62
     2
100
AcDbLine
 10
903.5239655763893
 20
-146.2232897834026
 30
0.0
 11
903.5239655763893
 21
-137.6231589405124
 31
0.0
  0
LINE
  5
DC
330
1F
100
AcDbEntity
  8
0
  6
Continuous
 62
     2
100
AcDbLine
 10
901.1239655763892
 20
-146.2232897834026
 30
0.0
 11
901.1239655763892
 21
-137.6231589405124
 31
0.0
  0
LINE
  5
DD
330
1F
100
AcDbEntity
  8
0
  6
Continuous
 62
     2
100
AcDbLine
 10
917.9239655763894
 20
-146.2232897834026
 30
0.0
 11
917.9239655763894
 21
-137.6231589405124
 31
0.0
  0
LINE
  5
DE
330
1F
100
AcDbEntity
  8
0
  6
Continuous
 62
     2
100
AcDbLine
 10
920.3239655763895
 20
-146.2232897834026
 30
0.0
 11
920.3239655763895
 21
-137.6231589405124
 31
0.0
  0
LINE
  5
DF
330
1F
100
AcDbEntity
  8
0
  6
Continuous
 62
     2
100
AcDbLine
 10
915.5239655763893
 20
-146.2232897834026
 30
0.0
 11
915.5239655763893
 21
-137.6231589405124
 31
0.0
  0
LINE
  5
E0
330
1F
100
AcDbEntity
  8
0
  6
Continuous
 62
     2
100
AcDbLine
 10
908.3239655763895
 20
-146.2232897834026
 30
0.0
 11
908.3239655763895
 21
-137.6231589405124
 31
0.0
  0
LINE
  5
E1
330
1F
100
AcDbEntity
  8
0
  6
Continuous
 62
     2
100
AcDbLine
 10
913.1239655763892
 20
-146.2232897834026
 30
0.0
 11
913.1239655763892
 21
-137.6231589405124
 31
0.0
  0
LINE
  5
E2
330
1F
100
AcDbEntity
  8
0
  6
Continuous
 62
     2
100
AcDbLine
 10
910.7239655763891
 20
-146.2232897834026
 30
0.0
 11
910.7239655763891
 21
-137.6231589405124
 31
0.0
  0
LINE
  5
E3
330
1F
100
AcDbEntity
  8
0
  6
Continuous
 62
     2
100
AcDbLine
 10
898.3239655763895
 20
-137.6231589405124
 30
0.0
 11
898.323965576389
 21
-279.1107897868914
 31
0.0
  0
LINE
  5
E4
330
1F
100
AcDbEntity
  8
0
  6
Continuous
 62
     2
100
AcDbLine
 10
900.7239655763891
 20
-137.6231589405124
 30
0.0
 11
900.7239655763891
 21
-146.2232897834026
 31
0.0
  0
LINE
  5
E5
330
1F
100
AcDbEntity
  8
0
  6
Continuous
 62
     2
100
AcDbLine
 10
903.1239655763892
 20
-137.6231589405124
 30
0.0
 11
903.1239655763892
 21
-146.2232897834026
 31
0.0
  0
LINE
  5
E6
330
1F
100
AcDbEntity
  8
0
  6
Continuous
 62
     2
100
AcDbLine
 10
905.5239655763893
 20
-137.6231589405124
 30
0.0
 11
905.5239655763893
 21
-146.2232897834026
 31
0.0
  0
LINE
  5
E7
330
1F
100
AcDbEntity
  8
0
  6
Continuous
 62
     2
100
AcDbLine
 10
907.9239655763894
 20
-137.6231589405124
 30
0.0
 11
907.9239655763894
 21
-146.2232897834026
 31
0.0
  0
LINE
  5
E8
330
1F
100
AcDbEntity
  8
0
  6
Continuous
 62
     2
100
AcDbLine
 10
910.323965576389
 20
-137.6231589405124
 30
0.0
 11
910.323965576389
 21
-146.2232897834026
 31
0.0
  0
LINE
  5
E9
330
1F
100
AcDbEntity
  8
0
  6
Continuous
 62
     2
100
AcDbLine
 10
912.7239655763891
 20
-137.6231589405124
 30
0.0
 11
912.7239655763891
 21
-146.2232897834026
 31
0.0
  0
LINE
  5
EA
330
1F
100
AcDbEntity
  8
0
  6
Continuous
 62
     2
100
AcDbLine
 10
915.1239655763892
 20
-137.6231589405124
 30
0.0
 11
915.1239655763892
 21
-146.2232897834026
 31
0.0
  0
LINE
  5
EB
330
1F
100
AcDbEntity
  8
0
  6
Continuous
 62
     2
100
AcDbLine
 10
917.5239655763893
 20
-137.6231589405124
 30
0.0
 11
917.5239655763893
 21
-146.2232897834026
 31
0.0
  0
LINE
  5
EC
330
1F
100
AcDbEntity
  8
0
  6
Continuous
 62
     2
100
AcDbLine
 10
919.9239655763894
 20
-137.6231589405124
 30
0.0
 11
919.9239655763894
 21
-146.2232897834026
 31
0.0
  0
LINE
  5
ED
330
1F
100
AcDbEntity
  8
0
  6
Continuous
 62
     2
100
AcDbLine
 10
922.3239655763895
 20
-137.6231589405124
 30
0.0
 11
922.3239655763895
 21
-279.1107897868914
 31
0.0
  0
LINE
  5
EE
330
1F
100
AcDbEntity
  8
0
  6
Continuous
 62
     2
100
AcDbLine
 10
1349.962125337193
 20
-282.7986571234338
 30
0.0
 11
1335.543437687249
 21
-283.5543085233438
 31
0.0
  0
LINE
  5
EF
330
1F
100
AcDbEntity
  8
0
  6
Continuous
 62
     7
100
AcDbLine
 10
589.6597535695762
 20
-283.5543085233044
 30
0.0
 11
589.6597535695759
 21
-137.8727682866956
 31
0.0
  0
LINE
  5
F0
330
1F
100
AcDbEntity
  8
0
  6
Continuous
 62
     2
100
AcDbLine
 10
620.0044412475171
 20
-137.6231589405124
 30
0.0
 11
620.0044412475171
 21
-279.1107897868914
 31
0.0
  0
LINE
  5
F1
330
1F
100
AcDbEntity
  8
0
  6
Continuous
 62
     2
100
AcDbLine
 10
603.2044412475169
 20
-137.6231589405124
 30
0.0
 11
603.2044412475169
 21
-279.1107897868914
 31
0.0
  0
LINE
  5
F2
330
1F
100
AcDbEntity
  8
0
  6
Continuous
 62
     2
100
AcDbLine
 10
622.404441247517
 20
-137.6231589405124
 30
0.0
 11
622.404441247517
 21
-279.1107897868914
 31
0.0
  0
LINE
  5
F3
330
1F
100
AcDbEntity
  8
0
  6
Continuous
 62
     2
100
AcDbLine
 10
615.2044412475169
 20
-137.6231589405124
 30
0.0
 11
615.2044412475169
 21
-279.1107897868914
 31
0.0
  0
LINE
  5
F4
330
1F
100
AcDbEntity
  8
0
  6
Continuous
 62
     2
100
AcDbLine
 10
617.604441247517
 20
-137.6231589405124
 30
0.0
 11
617.604441247517
 21
-279.1107897868914
 31
0.0
  0
LINE
  5
F5
330
1F
100
AcDbEntity
  8
0
  6
Continuous
 62
     2
100
AcDbLine
 10
600.804441247517
 20
-137.6231589405124
 30
0.0
 11
600.804441247517
 21
-279.1107897868914
 31
0.0
  0
LINE
  5
F6
330
1F
100
AcDbEntity
  8
0
  6
Continuous
 62
     2
100
AcDbLine
 10
612.804441247517
 20
-137.6231589405124
 30
0.0
 11
612.804441247517
 21
-279.1107897868914
 31
0.0
  0
LINE
  5
F7
330
1F
100
AcDbEntity
  8
0
  6
Continuous
 62
     2
100
AcDbLine
 10
605.6044412475172
 20
-137.6231589405124
 30
0.0
 11
605.604441247517
 21
-279.1107897868914
 31
0.0
  0
LINE
  5
F8
330
1F
100
AcDbEntity
  8
0
  6
Continuous
 62
     2
100
AcDbLine
 10
608.0044412475171
 20
-137.6231589405124
 30
0.0
 11
608.0044412475171
 21
-279.1107897868914
 31
0.0
  0
LINE
  5
F9
330
1F
100
AcDbEntity
  8
0
  6
Continuous
 62
     2
100
AcDbLine
 10
610.404441247517
 20
-137.6231589405124
 30
0.0
 11
610.404441247517
 21
-279.1107897868914
 31
0.0
  0
LINE
  5
FA
330
1F
100
AcDbEntity
  8
0
  6
Continuous
 62
     2
100
AcDbLine
 10
598.4044412475168
 20
-134.9231589405124
 30
0.0
 11
598.4044412475172
 21
-279.1107897868914
 31
0.0
  0
LINE
  5
FB
330
1F
100
AcDbEntity
  8
0
  6
Continuous
 62
     2
100
AcDbLine
 10
598.804441247517
 20
-279.1107897868914
 30
0.0
 11
598.8044412475172
 21
-137.6231589405123
 31
0.0
  0
LINE
  5
FC
330
1F
100
AcDbEntity
  8
0
  6
Continuous
 62
     2
100
AcDbLine
 10
620.4044412475172
 20
-279.1107897868914
 30
0.0
 11
620.4044412475172
 21
-137.6231589405123
 31
0.0
  0
LINE
  5
FD
330
1F
100
AcDbEntity
  8
0
  6
Continuous
 62
     2
100
AcDbLine
 10
603.6044412475172
 20
-279.1107897868914
 30
0.0
 11
603.6044412475172
 21
-137.6231589405123
 31
0.0
  0
LINE
  5
FE
330
1F
100
AcDbEntity
  8
0
  6
Continuous
 62
     2
100
AcDbLine
 10
905.9239655763894
 20
-279.1107897868914
 30
0.0
 11
905.9239655763894
 21
-221.6231372010214
 31
0.0
  0
LINE
  5
FF
330
1F
100
AcDbEntity
  8
0
  6
Continuous
 62
     2
100
AcDbLine
 10
905.5239655763893
 20
-221.6231372010214
 30
0.0
 11
905.5239655763893
 21
-279.1107897868914
 31
0.0
  0
LINE
  5
100
330
1F
100
AcDbEntity
  8
0
  6
Continuous
 62
     2
100
AcDbLine
 10
622.804441247517
 20
-279.1107897868914
 30
0.0
 11
622.804441247517
 21
-137.6231589405123
 31
0.0
  0
LINE
  5
101
330
1F
100
AcDbEntity
  8
0
  6
Continuous
 62
     2
100
AcDbLine
 10
615.604441247517
 20
-279.1107897868914
 30
0.0
 11
615.6044412475172
 21
-137.6231589405123
 31
0.0
  0
LINE
  5
102
330
1F
100
AcDbEntity
  8
0
  6
Continuous
 62
     2
100
AcDbLine
 10
618.0044412475171
 20
-279.1107897868914
 30
0.0
 11
618.0044412475171
 21
-137.6231589405123
 31
0.0
  0
LINE
  5
103
330
1F
100
AcDbEntity
  8
0
  6
Continuous
 62
     2
100
AcDbLine
 10
903.1239655763892
 20
-221.6231372010214
 30
0.0
 11
903.1239655763892
 21
-279.1107897868914
 31
0.0
  0
LINE
  5
104
330
1F
100
AcDbEntity
  8
0
  6
Continuous
 62
     2
100
AcDbLine
 10
903.5239655763893
 20
-279.1107897868914
 30
0.0
 11
903.5239655763893
 21
-221.6231372010214
 31
0.0
  0
LINE
  5
105
330
1F
100
AcDbEntity
  8
0
  6
Continuous
 62
     2
100
AcDbLine
 10
601.2044412475171
 20
-279.1107897868914
 30
0.0
 11
601.2044412475171
 21
-137.6231589405123
 31
0.0
  0
LINE
  5
106
330
1F
100
AcDbEntity
  8
0
  6
Continuous
 62
     2
100
AcDbLine
 10
613.2044412475171
 20
-279.1107897868914
 30
0.0
 11
613.2044412475171
 21
-137.6231589405123
 31
0.0
  0
LINE
  5
107
330
1F
100
AcDbEntity
  8
0
  6
Continuous
 62
     2
100
AcDbLine
 10
606.0044412475171
 20
-279.1107897868914
 30
0.0
 11
606.0044412475171
 21
-137.6231589405123
 31
0.0
  0
LINE
  5
108
330
1F
100
AcDbEntity
  8
0
  6
Continuous
 62
     2
100
AcDbLine
 10
608.4044412475172
 20
-279.1107897868914
 30
0.0
 11
608.4044412475173
 21
-137.6231589405123
 31
0.0
  0
LINE
  5
109
330
1F
100
AcDbEntity
  8
0
  6
Continuous
 62
     2
100
AcDbLine
 10
900.7239655763891
 20
-221.6231372010214
 30
0.0
 11
900.7239655763891
 21
-279.1107897868914
 31
0.0
  0
LINE
  5
10A
330
1F
100
AcDbEntity
  8
0
  6
Continuous
 62
     2
100
AcDbLine
 10
901.1239655763892
 20
-279.1107897868914
 30
0.0
 11
901.1239655763892
 21
-221.6231372010214
 31
0.0
  0
LINE
  5
10B
330
1F
100
AcDbEntity
  8
0
  6
Continuous
 62
     2
100
AcDbLine
 10
610.804441247517
 20
-279.1107897868914
 30
0.0
 11
610.804441247517
 21
-137.6231589405123
 31
0.0
  0
LINE
  5
10C
330
1F
100
AcDbEntity
  8
0
  6
Continuous
 62
     2
100
AcDbLine
 10
898.7239655763896
 20
-279.1107897868914
 30
0.0
 11
898.7239655763896
 21
-137.6231589405124
 31
0.0
  0
LINE
  5
10D
330
1F
100
AcDbEntity
  8
0
  6
Continuous
 62
     7
100
AcDbLine
 10
615.2642034119518
 20
-134.9231589405124
 30
0.0
 11
615.264203411952
 21
-133.9231589405124
 31
0.0
  0
LINE
  5
10E
330
1F
100
AcDbEntity
  8
0
  6
Continuous
 62
     7
100
AcDbLine
 10
615.264203411952
 20
-133.9231589405124
 30
0.0
 11
615.2642034120048
 21
-128.5402654241914
 31
0.0
  0
LINE
  5
10F
330
1F
100
AcDbEntity
  8
0
  6
Continuous
 62
     7
100
AcDbLine
 10
907.064203412005
 20
-120.5402654241914
 30
0.0
 11
907.0642034119518
 21
-128.5402654241914
 31
0.0
  0
LINE
  5
110
330
1F
100
AcDbEntity
  8
0
  6
Continuous
 62
     2
100
AcDbLine
 10
904.8642034118906
 20
-194.4231372010213
 30
0.0
 11
904.1767034118906
 21
-194.4231372010213
 31
0.0
  0
LINE
  5
111
330
1F
100
AcDbEntity
  8
0
  6
Continuous
 62
     2
100
AcDbLine
 10
904.8642034118906
 20
-189.4231372010215
 30
0.0
 11
904.8642034118906
 21
-194.4231372010213
 31
0.0
  0
LINE
  5
112
330
1F
100
AcDbEntity
  8
0
  6
Continuous
 62
     2
100
AcDbLine
 10
905.8642034118906
 20
-194.4231372010213
 30
0.0
 11
905.8642034118906
 21
-189.4231372010215
 31
0.0
  0
LINE
  5
113
330
1F
100
AcDbEntity
  8
0
  6
Continuous
 62
     2
100
AcDbLine
 10
904.1767034118906
 20
-189.4231372010215
 30
0.0
 11
904.8642034118906
 21
-189.4231372010215
 31
0.0
  0
LINE
  5
114
330
1F
100
AcDbEntity
  8
0
  6
Continuous
 62
     2
100
AcDbLine
 10
904.1767034118906
 20
-194.4231372010213
 30
0.0
 11
904.1767034118906
 21
-189.4231372010215
 31
0.0
  0
LINE
  5
115
330
1F
100
AcDbEntity
  8
0
  6
Continuous
 62
     2
100
AcDbLine
 10
905.8642034118906
 20
-194.4231372010213
 30
0.0
 11
906.5517034118906
 21
-194.4231372010213
 31
0.0
  0
LINE
  5
116
330
1F
100
AcDbEntity
  8
0
  6
Continuous
 62
     2
100
AcDbLine
 10
906.5517034118906
 20
-194.4231372010213
 30
0.0
 11
906.5517034118906
 21
-192.4231372010213
 31
0.0
  0
LINE
  5
117
330
1F
100
AcDbEntity
  8
0
  6
Continuous
 62
     2
100
AcDbLine
 10
906.5517034118906
 20
-191.7981372010215
 30
0.0
 11
906.5517034118906
 21
-190.0481372010215
 31
0.0
  0
LINE
  5
118
330
1F
100
AcDbEntity
  8
0
  6
Continuous
 62
     2
100
AcDbLine
 10
906.2802155763892
 20
-164.4231599875875
 30
0.0
 11
906.2802155763892
 21
-165.0481599875875
 31
0.0
  0
LINE
  5
119
330
1F
100
AcDbEntity
  8
0
  6
Continuous
 62
     7
100
AcDbLine
 10
907.0642034119522
 20
-133.9231589405124
 30
0.0
 11
907.0642034119522
 21
-134.9231589405124
 31
0.0
  0
LINE
  5
11A
330
1F
100
AcDbEntity
  8
0
  6
Continuous
 62
     7
100
AcDbLine
 10
907.0642034119518
 20
-128.5402654241914
 30
0.0
 11
907.0642034119522
 21
-133.9231589405124
 31
0.0
  0
LINE
  5
11B
330
1F
100
AcDbEntity
  8
0
  6
Continuous
 62
     2
100
AcDbLine
 10
906.7906322430562
 20
-159.0764293784634
 30
0.0
 11
906.7906322430562
 21
-155.7698905965894
 31
0.0
  0
LINE
  5
11C
330
1F
100
AcDbEntity
  8
0
  6
Continuous
 62
     7
100
AcDbLine
 10
590.6032248446876
 20
-137.1121679357898
 30
0.0
 11
590.6038323494778
 21
-137.1116619303245
 31
0.0
  0
LINE
  5
11D
330
1F
100
AcDbEntity
  8
0
  6
Continuous
 62
     7
100
AcDbLine
 10
595.7118661304149
 20
-133.9231589245135
 30
0.0
 11
615.264203411952
 21
-133.9231589405124
 31
0.0
  0
LINE
  5
11E
330
1F
100
AcDbEntity
  8
0
  6
Continuous
 62
     2
100
AcDbLine
 10
598.4044412475168
 20
-134.9231589405124
 30
0.0
 11
615.2642034119518
 21
-134.9231589405124
 31
0.0
  0
LINE
  5
11F
330
1F
100
AcDbEntity
  8
0
  6
Continuous
 62
     2
100
AcDbLine
 10
615.2642034120048
 20
-128.5402654241914
 30
0.0
 11
907.0642034119518
 21
-128.5402654241914
 31
0.0
  0
LINE
  5
120
330
1F
100
AcDbEntity
  8
0
  6
Continuous
 62
     7
100
AcDbLine
 10
615.2642034120048
 20
-120.5402654241914
 30
0.0
 11
907.064203412005
 21
-120.5402654241914
 31
0.0
  0
LINE
  5
121
330
1F
100
AcDbEntity
  8
0
  6
Continuous
 62
     7
100
AcDbLine
 10
615.2642034120048
 20
-120.5402654241914
 30
0.0
 11
615.2642034120048
 21
-128.5402654241914
 31
0.0
  0
LINE
  5
122
330
1F
100
AcDbEntity
  8
0
  6
Continuous
 62
     7
100
AcDbLine
 10
590.6479721830837
 20
-137.0750653421044
 30
0.0
 11
589.9520638186453
 21
-137.4227809312763
 31
0.0
  0
LINE
  5
123
330
1F
100
AcDbEntity
  8
0
  6
Continuous
 62
     2
100
AcDbLine
 10
598.4044412475172
 20
-279.1107897868914
 30
0.0
 11
598.404441247517
 21
-281.8000275886403
 31
0.0
  0
LINE
  5
124
330
1F
100
AcDbEntity
  8
0
  6
Continuous
 62
     2
100
AcDbLine
 10
590.4154049694822
 20
-282.7986571233953
 30
0.0
 11
589.6597535695762
 21
-283.5543085233044
 31
0.0
  0
LINE
  5
125
330
1F
100
AcDbEntity
  8
0
  6
Continuous
 62
     7
100
AcDbLine
 10
925.6782465110583
 20
-290.5447152665864
 30
0.0
 11
596.650160312858
 21
-290.5447152665864
 31
0.0
  0
LINE
  5
126
330
1F
100
AcDbEntity
  8
0
  6
Continuous
 62
     2
100
AcDbLine
 10
598.404441247517
 20
-281.8000275886403
 30
0.0
 11
923.9239655763898
 21
-281.8000275886403
 31
0.0
  0
LINE
  5
127
330
1F
100
AcDbEntity
  8
0
  6
Continuous
 62
     2
100
AcDbLine
 10
932.6686532543405
 20
-283.5543085233044
 30
0.0
 11
931.9130018544275
 21
-282.7986571233953
 31
0.0
  0
LINE
  5
128
330
1F
100
AcDbEntity
  8
0
  6
Continuous
 62
     2
100
AcDbLine
 10
923.9239655763898
 20
-281.8000275886403
 30
0.0
 11
923.9239655763894
 21
-137.4231589405124
 31
0.0
  0
LINE
  5
129
330
1F
100
AcDbEntity
  8
0
  6
Continuous
 62
     2
100
AcDbLine
 10
925.6782465110583
 20
-290.5447152665864
 30
0.0
 11
924.9225951111454
 21
-289.7890638666773
 31
0.0
  0
LINE
  5
12A
330
1F
100
AcDbEntity
  8
0
  6
Continuous
 62
     2
100
AcDbLine
 10
908.0517034118906
 20
-189.4231372010215
 30
0.0
 11
905.8642034118906
 21
-189.4231372010215
 31
0.0
  0
LINE
  5
12B
330
1F
100
AcDbEntity
  8
0
  6
Continuous
 62
     2
100
AcDbLine
 10
910.0927155763892
 20
-164.4231599875875
 30
0.0
 11
906.2802155763892
 21
-164.4231599875875
 31
0.0
  0
LINE
  5
12C
330
1F
100
AcDbEntity
  8
0
  6
Continuous
 62
     2
100
AcDbLine
 10
906.2802155763892
 20
-165.0481599875875
 30
0.0
 11
907.8427155763892
 21
-165.0481599875875
 31
0.0
  0
LINE
  5
12D
330
1F
100
AcDbEntity
  8
0
  6
Continuous
 62
     2
100
AcDbLine
 10
908.0517034118906
 20
-192.4231372010215
 30
0.0
 11
906.5517034118906
 21
-192.4231372010213
 31
0.0
  0
LINE
  5
12E
330
1F
100
AcDbEntity
  8
0
  6
Continuous
 62
     2
100
AcDbLine
 10
907.8642034118906
 20
-191.7981372010215
 30
0.0
 11
906.5517034118906
 21
-191.7981372010215
 31
0.0
  0
LINE
  5
12F
330
1F
100
AcDbEntity
  8
0
  6
Continuous
 62
     2
100
AcDbLine
 10
907.8642034118906
 20
-190.0481372010215
 30
0.0
 11
906.5517034118906
 21
-190.0481372010215
 31
0.0
  0
LINE
  5
130
330
1F
100
AcDbEntity
  8
0
  6
Continuous
 62
     2
100
AcDbLine
 10
913.8427155763892
 20
-169.4231599875875
 30
0.0
 11
915.3427155763892
 21
-165.5481599875875
 31
0.0
  0
LINE
  5
131
330
1F
100
AcDbEntity
  8
0
  6
Continuous
 62
     2
100
AcDbLine
 10
915.0927155763892
 20
-164.4231599875875
 30
0.0
 11
913.5302155763892
 21
-168.4231599875875
 31
0.0
  0
LINE
  5
132
330
1F
100
AcDbEntity
  8
0
  6
Continuous
 62
     2
100
AcDbLine
 10
915.2905397275525
 20
-159.3651579071457
 30
0.0
 11
913.9572063942195
 21
-160.1343886763773
 31
0.0
  0
LINE
  5
133
330
1F
100
AcDbEntity
  8
0
  6
Continuous
 62
     2
100
AcDbLine
 10
914.1239655763892
 20
-159.2685234548785
 30
0.0
 11
914.9573914252268
 21
-158.7877008497812
 31
0.0
  0
LINE
  5
134
330
1F
100
AcDbEntity
  8
0
  6
Continuous
 62
     2
100
AcDbLine
 10
914.1239655763892
 20
-157.7564933208594
 30
0.0
 11
914.1239655763892
 21
-159.2685234548785
 31
0.0
  0
LINE
  5
135
330
1F
100
AcDbEntity
  8
0
  6
Continuous
 62
     2
100
AcDbLine
 10
914.1239655763892
 20
-155.5777965201744
 30
0.0
 11
914.1239655763892
 21
-157.0898266541938
 31
0.0
  0
LINE
  5
136
330
1F
100
AcDbEntity
  8
0
  6
Continuous
 62
     2
100
AcDbLine
 10
913.9572063942195
 20
-154.7119312986767
 30
0.0
 11
915.290539727553
 21
-155.4811620679068
 31
0.0
  0
LINE
  5
137
330
1F
100
AcDbEntity
  8
0
  6
Continuous
 62
     2
100
AcDbLine
 10
915.1239655763892
 20
-157.7564933208594
 30
0.0
 11
914.1239655763892
 21
-157.7564933208594
 31
0.0
  0
LINE
  5
138
330
1F
100
AcDbEntity
  8
0
  6
Continuous
 62
     2
100
AcDbLine
 10
914.1239655763892
 20
-157.0898266541938
 30
0.0
 11
915.1239655763892
 21
-157.0898266541938
 31
0.0
  0
LINE
  5
139
330
1F
100
AcDbEntity
  8
0
  6
Continuous
 62
     2
100
AcDbLine
 10
914.9573914252263
 20
-156.0586191252726
 30
0.0
 11
914.1239655763892
 21
-155.5777965201744
 31
0.0
  0
LINE
  5
13A
330
1F
100
AcDbEntity
  8
0
  6
Continuous
 62
     2
100
AcDbLine
 10
922.7239655763896
 20
-279.1107897868914
 30
0.0
 11
922.7239655763896
 21
-137.6231589405124
 31
0.0
  0
LINE
  5
13B
330
1F
100
AcDbEntity
  8
0
  6
Continuous
 62
     2
100
AcDbLine
 10
917.3017034118906
 20
-191.0481372010213
 30
0.0
 11
918.0517034118906
 21
-189.9856372010215
 31
0.0
  0
LINE
  5
13C
330
1F
100
AcDbEntity
  8
0
  6
Continuous
 62
     2
100
AcDbLine
 10
917.3017034118906
 20
-191.0481372010213
 30
0.0
 11
916.8017034118906
 21
-191.9856372010215
 31
0.0
  0
LINE
  5
13D
330
1F
100
AcDbEntity
  8
0
  6
Continuous
 62
     2
100
AcDbLine
 10
917.9239655763894
 20
-279.1107897868914
 30
0.0
 11
917.9239655763894
 21
-221.6231372010214
 31
0.0
  0
LINE
  5
13E
330
1F
100
AcDbEntity
  8
0
  6
Continuous
 62
     2
100
AcDbLine
 10
917.5239655763893
 20
-221.6231372010214
 30
0.0
 11
917.5239655763893
 21
-279.1107897868914
 31
0.0
  0
LINE
  5
13F
330
1F
100
AcDbEntity
  8
0
  6
Continuous
 62
     2
100
AcDbLine
 10
918.0517034118906
 20
-189.4231372010215
 30
0.0
 11
918.0517034118906
 21
-189.9856372010215
 31
0.0
  0
LINE
  5
140
330
1F
100
AcDbEntity
  8
0
  6
Continuous
 62
     2
100
AcDbLine
 10
919.9239655763894
 20
-221.6231372010214
 30
0.0
 11
919.9239655763894
 21
-279.1107897868914
 31
0.0
  0
LINE
  5
141
330
1F
100
AcDbEntity
  8
0
  6
Continuous
 62
     2
100
AcDbLine
 10
916.4892034118906
 20
-191.1731372010213
 30
0.0
 11
917.3017034118906
 21
-190.0481372010215
 31
0.0
  0
LINE
  5
142
330
1F
100
AcDbEntity
  8
0
  6
Continuous
 62
     2
100
AcDbLine
 10
916.8017034118906
 20
-191.9856372010215
 30
0.0
 11
916.4892034118906
 21
-192.7356372010213
 31
0.0
  0
LINE
  5
143
330
1F
100
AcDbEntity
  8
0
  6
Continuous
 62
     2
100
AcDbLine
 10
915.5239655763893
 20
-279.1107897868914
 30
0.0
 11
915.5239655763893
 21
-221.6231372010214
 31
0.0
  0
LINE
  5
144
330
1F
100
AcDbEntity
  8
0
  6
Continuous
 62
     2
100
AcDbLine
 10
915.1239655763892
 20
-221.6231372010214
 30
0.0
 11
915.1239655763892
 21
-279.1107897868914
 31
0.0
  0
LINE
  5
145
330
1F
100
AcDbEntity
  8
0
  6
Continuous
 62
     2
100
AcDbLine
 10
915.3142034118908
 20
-202.4231372010214
 30
0.0
 11
915.3142034118908
 21
-201.5231372010214
 31
0.0
  0
LINE
  5
146
330
1F
100
AcDbEntity
  8
0
  6
Continuous
 62
     2
100
AcDbLine
 10
915.3142034118904
 20
-196.4231372010213
 30
0.0
 11
915.3142034118904
 21
-197.3231372010214
 31
0.0
  0
LINE
  5
147
330
1F
100
AcDbEntity
  8
0
  6
Continuous
 62
     2
100
AcDbLine
 10
915.3427155763892
 20
-165.5481599875875
 30
0.0
 11
915.3427155763892
 21
-169.4231599875875
 31
0.0
  0
LINE
  5
148
330
1F
100
AcDbEntity
  8
0
  6
Continuous
 62
     2
100
AcDbLine
 10
917.3017034118906
 20
-190.0481372010215
 30
0.0
 11
914.8017034118906
 21
-190.0481372010213
 31
0.0
  0
LINE
  5
149
330
1F
100
AcDbEntity
  8
0
  6
Continuous
 62
     2
100
AcDbLine
 10
915.3427155763892
 20
-169.4231599875875
 30
0.0
 11
915.9677155763892
 21
-169.4231599875875
 31
0.0
  0
LINE
  5
14A
330
1F
100
AcDbEntity
  8
0
  6
Continuous
 62
     2
100
AcDbLine
 10
914.8017034118906
 20
-190.0481372010213
 30
0.0
 11
914.8017034118906
 21
-189.4231372010215
 31
0.0
  0
LINE
  5
14B
330
1F
100
AcDbEntity
  8
0
  6
Continuous
 62
     2
100
AcDbLine
 10
915.0142034118907
 20
-197.3231372010214
 30
0.0
 11
915.3142034118904
 21
-197.3231372010214
 31
0.0
  0
LINE
  5
14C
330
1F
100
AcDbEntity
  8
0
  6
Continuous
 62
     2
100
AcDbLine
 10
915.3142034118904
 20
-196.4231372010213
 30
0.0
 11
915.0142034118907
 21
-196.4231372010215
 31
0.0
  0
LINE
  5
14D
330
1F
100
AcDbEntity
  8
0
  6
Continuous
 62
     2
100
AcDbLine
 10
914.8017034118906
 20
-189.4231372010215
 30
0.0
 11
918.0517034118906
 21
-189.4231372010215
 31
0.0
  0
LINE
  5
14E
330
1F
100
AcDbEntity
  8
0
  6
Continuous
 62
     2
100
AcDbLine
 10
916.1142034118906
 20
-191.9231372010213
 30
0.0
 11
916.4892034118906
 21
-191.1731372010213
 31
0.0
  0
LINE
  5
14F
330
1F
100
AcDbEntity
  8
0
  6
Continuous
 62
     2
100
AcDbLine
 10
916.1767034118906
 20
-194.4231372010215
 30
0.0
 11
915.4267034118906
 21
-194.4231372010213
 31
0.0
  0
LINE
  5
150
330
1F
100
AcDbEntity
  8
0
  6
Continuous
 62
     2
100
AcDbLine
 10
916.1142034118906
 20
-191.9231372010213
 30
0.0
 11
915.8642034118906
 21
-192.4856372010213
 31
0.0
  0
LINE
  5
151
330
1F
100
AcDbEntity
  8
0
  6
Continuous
 62
     2
100
AcDbLine
 10
915.5517034118906
 20
-193.4231372010213
 30
0.0
 11
915.8642034118906
 21
-192.4856372010213
 31
0.0
  0
LINE
  5
152
330
1F
100
AcDbEntity
  8
0
  6
Continuous
 62
     2
100
AcDbLine
 10
915.5517034118906
 20
-193.4231372010213
 30
0.0
 11
915.4267034118906
 21
-194.4231372010213
 31
0.0
  0
LINE
  5
153
330
1F
100
AcDbEntity
  8
0
  6
Continuous
 62
     2
100
AcDbLine
 10
915.3142034118908
 20
-202.4231372010214
 30
0.0
 11
915.0142034118907
 21
-202.4231372010214
 31
0.0
  0
LINE
  5
154
330
1F
100
AcDbEntity
  8
0
  6
Continuous
 62
     2
100
AcDbLine
 10
914.7142034118909
 20
-199.8731372010214
 30
0.0
 11
914.7142034118905
 21
-198.9731372010214
 31
0.0
  0
LINE
  5
155
330
1F
100
AcDbEntity
  8
0
  6
Continuous
 62
     2
100
AcDbLine
 10
915.0142034118907
 20
-201.5231372010214
 30
0.0
 11
915.3142034118908
 21
-201.5231372010214
 31
0.0
  0
LINE
  5
156
330
1F
100
AcDbEntity
  8
0
  6
Continuous
 62
     2
100
AcDbLine
 10
916.3017034118906
 20
-193.485637201022
 30
0.0
 11
916.1767034118906
 21
-194.4231372010215
 31
0.0
  0
LINE
  5
157
330
1F
100
AcDbEntity
  8
0
  6
Continuous
 62
     2
100
AcDbLine
 10
916.3017034118906
 20
-193.485637201022
 30
0.0
 11
916.4892034118906
 21
-192.7356372010213
 31
0.0
  0
LINE
  5
158
330
1F
100
AcDbEntity
  8
0
  6
Continuous
 62
     2
100
AcDbLine
 10
915.9677155763892
 20
-169.4231599875875
 30
0.0
 11
915.9677155763892
 21
-164.4231599875875
 31
0.0
  0
LINE
  5
159
330
1F
100
AcDbEntity
  8
0
  6
Continuous
 62
     2
100
AcDbLine
 10
915.9677155763892
 20
-164.4231599875875
 30
0.0
 11
915.0927155763892
 21
-164.4231599875875
 31
0.0
  0
LINE
  5
15A
330
1F
100
AcDbEntity
  8
0
  6
Continuous
 62
     2
100
AcDbLine
 10
907.8427155763892
 20
-169.4231599875875
 30
0.0
 11
908.5302155763892
 21
-169.4231599875875
 31
0.0
  0
LINE
  5
15B
330
1F
100
AcDbEntity
  8
0
  6
Continuous
 62
     2
100
AcDbLine
 10
908.2392034118906
 20
-191.7356372010215
 30
0.0
 11
907.8642034118906
 21
-191.7981372010215
 31
0.0
  0
LINE
  5
15C
330
1F
100
AcDbEntity
  8
0
  6
Continuous
 62
     2
100
AcDbLine
 10
907.8642034118906
 20
-190.0481372010215
 30
0.0
 11
908.2392034118906
 21
-190.1106372010215
 31
0.0
  0
LINE
  5
15D
330
1F
100
AcDbEntity
  8
0
  6
Continuous
 62
     2
100
AcDbLine
 10
908.2392034118906
 20
-191.7356372010215
 30
0.0
 11
908.551703411891
 21
-191.6106372010213
 31
0.0
  0
LINE
  5
15E
330
1F
100
AcDbEntity
  8
0
  6
Continuous
 62
     2
100
AcDbLine
 10
910.7239655763891
 20
-279.1107897868914
 30
0.0
 11
910.7239655763891
 21
-221.6231372010214
 31
0.0
  0
LINE
  5
15F
330
1F
100
AcDbEntity
  8
0
  6
Continuous
 62
     2
100
AcDbLine
 10
910.323965576389
 20
-221.6231372010214
 30
0.0
 11
910.323965576389
 21
-279.1107897868914
 31
0.0
  0
LINE
  5
160
330
1F
100
AcDbEntity
  8
0
  6
Continuous
 62
     2
100
AcDbLine
 10
912.7239655763891
 20
-221.6231372010214
 30
0.0
 11
912.7239655763891
 21
-279.1107897868914
 31
0.0
  0
LINE
  5
161
330
1F
100
AcDbEntity
  8
0
  6
Continuous
 62
     2
100
AcDbLine
 10
912.3642034118906
 20
-194.4231372010215
 30
0.0
 11
912.0517034118906
 21
-194.4231372010215
 31
0.0
  0
LINE
  5
162
330
1F
100
AcDbEntity
  8
0
  6
Continuous
 62
     2
100
AcDbLine
 10
912.0517034118906
 20
-191.1731372010215
 30
0.0
 11
912.3642034118906
 21
-191.1731372010215
 31
0.0
  0
LINE
  5
163
330
1F
100
AcDbEntity
  8
0
  6
Continuous
 62
     2
100
AcDbLine
 10
912.0517034118906
 20
-193.7981372010215
 30
0.0
 11
912.3642034118906
 21
-193.7981372010215
 31
0.0
  0
LINE
  5
164
330
1F
100
AcDbEntity
  8
0
  6
Continuous
 62
     2
100
AcDbLine
 10
912.364203411891
 20
-191.7981372010215
 30
0.0
 11
912.0517034118906
 21
-191.7981372010215
 31
0.0
  0
LINE
  5
165
330
1F
100
AcDbEntity
  8
0
  6
Continuous
 62
     2
100
AcDbLine
 10
912.3642034118906
 20
-191.1731372010215
 30
0.0
 11
912.6767034118906
 21
-191.2356372010215
 31
0.0
  0
LINE
  5
166
330
1F
100
AcDbEntity
  8
0
  6
Continuous
 62
     2
100
AcDbLine
 10
912.6767034118906
 20
-194.3606372010215
 30
0.0
 11
912.3642034118906
 21
-194.4231372010215
 31
0.0
  0
LINE
  5
167
330
1F
100
AcDbEntity
  8
0
  6
Continuous
 62
     2
100
AcDbLine
 10
912.4267034118906
 20
-189.4231372010215
 30
0.0
 11
912.6767034118906
 21
-189.4856372010215
 31
0.0
  0
LINE
  5
168
330
1F
100
AcDbEntity
  8
0
  6
Continuous
 62
     2
100
AcDbLine
 10
912.7906322430562
 20
-160.6148909169244
 30
0.0
 11
912.7906322430562
 21
-154.1919426754914
 31
0.0
  0
LINE
  5
169
330
1F
100
AcDbEntity
  8
0
  6
Continuous
 62
     2
100
AcDbLine
 10
912.2961985594324
 20
-154.0594595692544
 30
0.0
 11
911.1239655763892
 21
-156.0898266541938
 31
0.0
  0
LINE
  5
16A
330
1F
100
AcDbEntity
  8
0
  6
Continuous
 62
     2
100
AcDbLine
 10
912.1239655763892
 20
-155.6911091799575
 30
0.0
 11
911.2683031436867
 21
-157.1731599875268
 31
0.0
  0
LINE
  5
16B
330
1F
100
AcDbEntity
  8
0
  6
Continuous
 62
     2
100
AcDbLine
 10
911.9677155763892
 20
-164.4231599875875
 30
0.0
 11
911.0927155763892
 21
-164.4231599875875
 31
0.0
  0
LINE
  5
16C
330
1F
100
AcDbEntity
  8
0
  6
Continuous
 62
     2
100
AcDbLine
 10
911.7392034118906
 20
-189.4856372010215
 30
0.0
 11
911.9892034118906
 21
-189.4231372010215
 31
0.0
  0
LINE
  5
16D
330
1F
100
AcDbEntity
  8
0
  6
Continuous
 62
     2
100
AcDbLine
 10
908.7906322430562
 20
-159.6531388394935
 30
0.0
 11
910.9572063942195
 21
-160.9030854651648
 31
0.0
  0
LINE
  5
16E
330
1F
100
AcDbEntity
  8
0
  6
Continuous
 62
     2
100
AcDbLine
 10
910.7392034118906
 20
-190.4231372010215
 30
0.0
 11
910.8642034118906
 21
-190.1731372010213
 31
0.0
  0
LINE
  5
16F
330
1F
100
AcDbEntity
  8
0
  6
Continuous
 62
     2
100
AcDbLine
 10
910.6142034118906
 20
-190.7356372010213
 30
0.0
 11
910.7392034118906
 21
-190.4231372010215
 31
0.0
  0
LINE
  5
170
330
1F
100
AcDbEntity
  8
0
  6
Continuous
 62
     2
100
AcDbLine
 10
910.7392034118906
 20
-193.4231372010213
 30
0.0
 11
910.6142034118906
 21
-193.1106372010213
 31
0.0
  0
LINE
  5
171
330
1F
100
AcDbEntity
  8
0
  6
Continuous
 62
     2
100
AcDbLine
 10
910.0927155763892
 20
-165.0481599875875
 30
0.0
 11
910.0927155763892
 21
-164.4231599875875
 31
0.0
  0
LINE
  5
172
330
1F
100
AcDbEntity
  8
0
  6
Continuous
 62
     2
100
AcDbLine
 10
908.5302155763892
 20
-169.4231599875875
 30
0.0
 11
908.5302155763892
 21
-165.0481599875875
 31
0.0
  0
LINE
  5
173
330
1F
100
AcDbEntity
  8
0
  6
Continuous
 62
     2
100
AcDbLine
 10
909.4267034118906
 20
-190.2981372010215
 30
0.0
 11
909.1767034118906
 21
-189.923137201022
 31
0.0
  0
LINE
  5
174
330
1F
100
AcDbEntity
  8
0
  6
Continuous
 62
     2
100
AcDbLine
 10
908.926703411891
 20
-192.1731372010213
 30
0.0
 11
908.5517034118906
 21
-192.3606372010215
 31
0.0
  0
LINE
  5
175
330
1F
100
AcDbEntity
  8
0
  6
Continuous
 62
     2
100
AcDbLine
 10
908.3239655763895
 20
-279.1107897868914
 30
0.0
 11
908.3239655763895
 21
-221.6231372010214
 31
0.0
  0
LINE
  5
176
330
1F
100
AcDbEntity
  8
0
  6
Continuous
 62
     2
100
AcDbLine
 10
908.7392034118906
 20
-191.4231372010215
 30
0.0
 11
908.551703411891
 21
-191.6106372010213
 31
0.0
  0
LINE
  5
177
330
1F
100
AcDbEntity
  8
0
  6
Continuous
 62
     2
100
AcDbLine
 10
909.176703411891
 20
-191.9231372010211
 30
0.0
 11
908.926703411891
 21
-192.1731372010213
 31
0.0
  0
LINE
  5
178
330
1F
100
AcDbEntity
  8
0
  6
Continuous
 62
     2
100
AcDbLine
 10
908.8642034118906
 20
-190.7356372010213
 30
0.0
 11
908.8642034118906
 21
-191.1106372010215
 31
0.0
  0
LINE
  5
179
330
1F
100
AcDbEntity
  8
0
  6
Continuous
 62
     2
100
AcDbLine
 10
908.7392034118906
 20
-190.4231372010213
 30
0.0
 11
908.5517034118906
 21
-190.2356372010215
 31
0.0
  0
LINE
  5
17A
330
1F
100
AcDbEntity
  8
0
  6
Continuous
 62
     2
100
AcDbLine
 10
908.8642034118906
 20
-190.7356372010213
 30
0.0
 11
908.7392034118906
 21
-190.4231372010213
 31
0.0
  0
LINE
  5
17B
330
1F
100
AcDbEntity
  8
0
  6
Continuous
 62
     2
100
AcDbLine
 10
908.8642034118906
 20
-191.1106372010215
 30
0.0
 11
908.7392034118906
 21
-191.4231372010215
 31
0.0
  0
LINE
  5
17C
330
1F
100
AcDbEntity
  8
0
  6
Continuous
 62
     2
100
AcDbLine
 10
908.5517034118906
 20
-189.4856372010217
 30
0.0
 11
908.926703411891
 21
-189.6731372010217
 31
0.0
  0
LINE
  5
17D
330
1F
100
AcDbEntity
  8
0
  6
Continuous
 62
     2
100
AcDbLine
 10
909.176703411891
 20
-191.9231372010211
 30
0.0
 11
909.4267034118906
 21
-191.5481372010213
 31
0.0
  0
LINE
  5
17E
330
1F
100
AcDbEntity
  8
0
  6
Continuous
 62
     2
100
AcDbLine
 10
909.4892034118906
 20
-191.1106372010213
 30
0.0
 11
909.4267034118906
 21
-191.5481372010213
 31
0.0
  0
LINE
  5
17F
330
1F
100
AcDbEntity
  8
0
  6
Continuous
 62
     2
100
AcDbLine
 10
909.4892034118906
 20
-191.1106372010213
 30
0.0
 11
909.4892034118906
 21
-190.7356372010213
 31
0.0
  0
LINE
  5
180
330
1F
100
AcDbEntity
  8
0
  6
Continuous
 62
     2
100
AcDbLine
 10
909.4267034118906
 20
-190.2981372010215
 30
0.0
 11
909.4892034118906
 21
-190.7356372010213
 31
0.0
  0
LINE
  5
181
330
1F
100
AcDbEntity
  8
0
  6
Continuous
 62
     2
100
AcDbLine
 10
909.1767034118906
 20
-189.923137201022
 30
0.0
 11
908.926703411891
 21
-189.6731372010217
 31
0.0
  0
LINE
  5
182
330
1F
100
AcDbEntity
  8
0
  6
Continuous
 62
     2
100
AcDbLine
 10
909.4572989097227
 20
-154.1919426754914
 30
0.0
 11
909.4572989097227
 21
-159.0755749148937
 31
0.0
  0
LINE
  5
183
330
1F
100
AcDbEntity
  8
0
  6
Continuous
 62
     2
100
AcDbLine
 10
908.7906322430562
 20
-155.0006598273596
 30
0.0
 11
908.7906322430562
 21
-159.6531388394935
 31
0.0
  0
LINE
  5
184
330
1F
100
AcDbEntity
  8
0
  6
Continuous
 62
     2
100
AcDbLine
 10
910.2142034118905
 20
-197.3231372010214
 30
0.0
 11
909.9142034118903
 21
-197.3231372010214
 31
0.0
  0
LINE
  5
185
330
1F
100
AcDbEntity
  8
0
  6
Continuous
 62
     2
100
AcDbLine
 10
910.2142034118905
 20
-196.4231372010213
 30
0.0
 11
910.2142034118905
 21
-197.3231372010214
 31
0.0
  0
LINE
  5
186
330
1F
100
AcDbEntity
  8
0
  6
Continuous
 62
     2
100
AcDbLine
 10
908.5302155763892
 20
-165.0481599875875
 30
0.0
 11
910.0927155763892
 21
-165.0481599875875
 31
0.0
  0
LINE
  5
187
330
1F
100
AcDbEntity
  8
0
  6
Continuous
 62
     2
100
AcDbLine
 10
909.9142034118903
 20
-196.4231372010215
 30
0.0
 11
910.2142034118905
 21
-196.4231372010213
 31
0.0
  0
LINE
  5
188
330
1F
100
AcDbEntity
  8
0
  6
Continuous
 62
     2
100
AcDbLine
 10
910.6240580918928
 20
-161.4805425225306
 30
0.0
 11
908.4574839407295
 21
-160.2305958968593
 31
0.0
  0
LINE
  5
189
330
1F
100
AcDbEntity
  8
0
  6
Continuous
 62
     2
100
AcDbLine
 10
909.9142034118908
 20
-201.5231372010214
 30
0.0
 11
910.2142034118905
 21
-201.5231372010214
 31
0.0
  0
LINE
  5
18A
330
1F
100
AcDbEntity
  8
0
  6
Continuous
 62
     2
100
AcDbLine
 10
910.1239655763892
 20
-155.6911091799575
 30
0.0
 11
910.1239655763892
 21
-159.0755749148937
 31
0.0
  0
LINE
  5
18B
330
1F
100
AcDbEntity
  8
0
  6
Continuous
 62
     2
100
AcDbLine
 10
910.2142034118905
 20
-201.5231372010214
 30
0.0
 11
910.2142034118909
 21
-202.4231372010214
 31
0.0
  0
LINE
  5
18C
330
1F
100
AcDbEntity
  8
0
  6
Continuous
 62
     2
100
AcDbLine
 10
910.5517034118906
 20
-191.1106372010208
 30
0.0
 11
910.6142034118906
 21
-190.7356372010213
 31
0.0
  0
LINE
  5
18D
330
1F
100
AcDbEntity
  8
0
  6
Continuous
 62
     2
100
AcDbLine
 10
910.5517034118906
 20
-191.1106372010208
 30
0.0
 11
910.4892034118906
 21
-191.6731372010215
 31
0.0
  0
LINE
  5
18E
330
1F
100
AcDbEntity
  8
0
  6
Continuous
 62
     2
100
AcDbLine
 10
910.4892034118906
 20
-192.1731372010213
 30
0.0
 11
910.4892034118906
 21
-191.6731372010215
 31
0.0
  0
LINE
  5
18F
330
1F
100
AcDbEntity
  8
0
  6
Continuous
 62
     2
100
AcDbLine
 10
910.2142034118909
 20
-202.4231372010214
 30
0.0
 11
909.9142034118908
 21
-202.4231372010214
 31
0.0
  0
LINE
  5
190
330
1F
100
AcDbEntity
  8
0
  6
Continuous
 62
     2
100
AcDbLine
 10
910.5517034118906
 20
-192.7356372010211
 30
0.0
 11
910.4892034118906
 21
-192.1731372010213
 31
0.0
  0
LINE
  5
191
330
1F
100
AcDbEntity
  8
0
  6
Continuous
 62
     2
100
AcDbLine
 10
910.6142034118906
 20
-193.1106372010213
 30
0.0
 11
910.5517034118906
 21
-192.7356372010211
 31
0.0
  0
LINE
  5
192
330
1F
100
AcDbEntity
  8
0
  6
Continuous
 62
     2
100
AcDbLine
 10
910.8642034118906
 20
-193.6731372010215
 30
0.0
 11
910.7392034118906
 21
-193.4231372010213
 31
0.0
  0
LINE
  5
193
330
1F
100
AcDbEntity
  8
0
  6
Continuous
 62
     2
100
AcDbLine
 10
911.7177155763892
 20
-169.4231599875875
 30
0.0
 11
911.7177155763892
 21
-165.5481599875875
 31
0.0
  0
LINE
  5
194
330
1F
100
AcDbEntity
  8
0
  6
Continuous
 62
     2
100
AcDbLine
 10
911.0927155763892
 20
-169.4231599875875
 30
0.0
 11
911.7177155763892
 21
-169.4231599875875
 31
0.0
  0
LINE
  5
195
330
1F
100
AcDbEntity
  8
0
  6
Continuous
 62
     2
100
AcDbLine
 10
911.0927155763892
 20
-164.4231599875875
 30
0.0
 11
911.0927155763892
 21
-169.4231599875875
 31
0.0
  0
LINE
  5
196
330
1F
100
AcDbEntity
  8
0
  6
Continuous
 62
     2
100
AcDbLine
 10
910.9796280090917
 20
-157.1731599875266
 30
0.0
 11
910.1239655763892
 21
-155.6911091799575
 31
0.0
  0
LINE
  5
197
330
1F
100
AcDbEntity
  8
0
  6
Continuous
 62
     2
100
AcDbLine
 10
909.951732593346
 20
-154.0594595692544
 30
0.0
 11
911.1239655763892
 21
-156.0898266541938
 31
0.0
  0
LINE
  5
198
330
1F
100
AcDbEntity
  8
0
  6
Continuous
 62
     2
100
AcDbLine
 10
911.051703411891
 20
-189.9231372010213
 30
0.0
 11
911.2392034118906
 21
-189.7356372010215
 31
0.0
  0
LINE
  5
199
330
1F
100
AcDbEntity
  8
0
  6
Continuous
 62
     2
100
AcDbLine
 10
911.7392034118906
 20
-189.4856372010215
 30
0.0
 11
911.4267034118906
 21
-189.6106372010215
 31
0.0
  0
LINE
  5
19A
330
1F
100
AcDbEntity
  8
0
  6
Continuous
 62
     2
100
AcDbLine
 10
911.2392034118906
 20
-189.7356372010215
 30
0.0
 11
911.4267034118906
 21
-189.6106372010215
 31
0.0
  0
LINE
  5
19B
330
1F
100
AcDbEntity
  8
0
  6
Continuous
 62
     2
100
AcDbLine
 10
911.4267034118906
 20
-191.4231372010215
 30
0.0
 11
911.7392034118906
 21
-191.2356372010215
 31
0.0
  0
LINE
  5
19C
330
1F
100
AcDbEntity
  8
0
  6
Continuous
 62
     2
100
AcDbLine
 10
911.7392034118906
 20
-194.3606372010215
 30
0.0
 11
911.4267034118906
 21
-194.2356372010215
 31
0.0
  0
LINE
  5
19D
330
1F
100
AcDbEntity
  8
0
  6
Continuous
 62
     2
100
AcDbLine
 10
911.4267034118906
 20
-191.4231372010215
 30
0.0
 11
911.1142034118906
 21
-191.7356372010215
 31
0.0
  0
LINE
  5
19E
330
1F
100
AcDbEntity
  8
0
  6
Continuous
 62
     2
100
AcDbLine
 10
911.4267034118906
 20
-194.2356372010215
 30
0.0
 11
911.2392034118906
 21
-194.1106372010217
 31
0.0
  0
LINE
  5
19F
330
1F
100
AcDbEntity
  8
0
  6
Continuous
 62
     2
100
AcDbLine
 10
911.2392034118906
 20
-194.1106372010217
 30
0.0
 11
911.0517034118906
 21
-193.9231372010217
 31
0.0
  0
LINE
  5
1A0
330
1F
100
AcDbEntity
  8
0
  6
Continuous
 62
     2
100
AcDbLine
 10
911.2392034118906
 20
-190.8606372010213
 30
0.0
 11
911.1142034118906
 21
-191.7356372010215
 31
0.0
  0
LINE
  5
1A1
330
1F
100
AcDbEntity
  8
0
  6
Continuous
 62
     2
100
AcDbLine
 10
911.2392034118906
 20
-192.6106372010213
 30
0.0
 11
911.2392034118906
 21
-192.9856372010213
 31
0.0
  0
LINE
  5
1A2
330
1F
100
AcDbEntity
  8
0
  6
Continuous
 62
     2
100
AcDbLine
 10
910.8642034118906
 20
-190.1731372010213
 30
0.0
 11
911.051703411891
 21
-189.9231372010213
 31
0.0
  0
LINE
  5
1A3
330
1F
100
AcDbEntity
  8
0
  6
Continuous
 62
     2
100
AcDbLine
 10
911.0517034118906
 20
-193.9231372010217
 30
0.0
 11
910.8642034118906
 21
-193.6731372010215
 31
0.0
  0
LINE
  5
1A4
330
1F
100
AcDbEntity
  8
0
  6
Continuous
 62
     2
100
AcDbLine
 10
911.3642034118906
 20
-190.5481372010211
 30
0.0
 11
911.2392034118906
 21
-190.8606372010213
 31
0.0
  0
LINE
  5
1A5
330
1F
100
AcDbEntity
  8
0
  6
Continuous
 62
     2
100
AcDbLine
 10
911.2392034118906
 20
-192.9856372010213
 30
0.0
 11
911.3642034118906
 21
-193.2981372010211
 31
0.0
  0
LINE
  5
1A6
330
1F
100
AcDbEntity
  8
0
  6
Continuous
 62
     2
100
AcDbLine
 10
911.3642034118906
 20
-192.2981372010213
 30
0.0
 11
911.2392034118906
 21
-192.6106372010213
 31
0.0
  0
LINE
  5
1A7
330
1F
100
AcDbEntity
  8
0
  6
Continuous
 62
     2
100
AcDbLine
 10
911.3642034118906
 20
-190.5481372010211
 30
0.0
 11
911.4892034118906
 21
-190.3606372010215
 31
0.0
  0
LINE
  5
1A8
330
1F
100
AcDbEntity
  8
0
  6
Continuous
 62
     2
100
AcDbLine
 10
911.739203411891
 20
-190.1731372010211
 30
0.0
 11
911.4892034118906
 21
-190.3606372010215
 31
0.0
  0
LINE
  5
1A9
330
1F
100
AcDbEntity
  8
0
  6
Continuous
 62
     2
100
AcDbLine
 10
911.4892034118906
 20
-193.4856372010217
 30
0.0
 11
911.7392034118906
 21
-193.6731372010215
 31
0.0
  0
LINE
  5
1AA
330
1F
100
AcDbEntity
  8
0
  6
Continuous
 62
     2
100
AcDbLine
 10
911.3642034118906
 20
-193.2981372010211
 30
0.0
 11
911.4892034118906
 21
-193.4856372010217
 31
0.0
  0
LINE
  5
1AB
330
1F
100
AcDbEntity
  8
0
  6
Continuous
 62
     2
100
AcDbLine
 10
911.4892034118906
 20
-192.1106372010215
 30
0.0
 11
911.3642034118906
 21
-192.2981372010213
 31
0.0
  0
LINE
  5
1AC
330
1F
100
AcDbEntity
  8
0
  6
Continuous
 62
     2
100
AcDbLine
 10
911.7392034118906
 20
-191.9231372010215
 30
0.0
 11
911.4892034118906
 21
-192.1106372010215
 31
0.0
  0
LINE
  5
1AD
330
1F
100
AcDbEntity
  8
0
  6
Continuous
 62
     2
100
AcDbLine
 10
912.0517034118906
 20
-191.7981372010215
 30
0.0
 11
911.7392034118906
 21
-191.9231372010215
 31
0.0
  0
LINE
  5
1AE
330
1F
100
AcDbEntity
  8
0
  6
Continuous
 62
     2
100
AcDbLine
 10
911.7392034118906
 20
-191.2356372010215
 30
0.0
 11
912.0517034118906
 21
-191.1731372010215
 31
0.0
  0
LINE
  5
1AF
330
1F
100
AcDbEntity
  8
0
  6
Continuous
 62
     2
100
AcDbLine
 10
912.0517034118906
 20
-194.4231372010215
 30
0.0
 11
911.7392034118906
 21
-194.3606372010215
 31
0.0
  0
LINE
  5
1B0
330
1F
100
AcDbEntity
  8
0
  6
Continuous
 62
     2
100
AcDbLine
 10
911.9892034118906
 20
-190.0481372010215
 30
0.0
 11
911.739203411891
 21
-190.1731372010211
 31
0.0
  0
LINE
  5
1B1
330
1F
100
AcDbEntity
  8
0
  6
Continuous
 62
     2
100
AcDbLine
 10
912.1239655763892
 20
-155.6911091799575
 30
0.0
 11
912.1239655763892
 21
-160.6148909169244
 31
0.0
  0
LINE
  5
1B2
330
1F
100
AcDbEntity
  8
0
  6
Continuous
 62
     2
100
AcDbLine
 10
911.7392034118906
 20
-193.6731372010215
 30
0.0
 11
912.0517034118906
 21
-193.7981372010215
 31
0.0
  0
LINE
  5
1B3
330
1F
100
AcDbEntity
  8
0
  6
Continuous
 62
     2
100
AcDbLine
 10
912.4267034118906
 20
-190.0481372010215
 30
0.0
 11
911.9892034118906
 21
-190.0481372010215
 31
0.0
  0
LINE
  5
1B4
330
1F
100
AcDbEntity
  8
0
  6
Continuous
 62
     2
100
AcDbLine
 10
912.6767034118906
 20
-190.1731372010215
 30
0.0
 11
912.4267034118906
 21
-190.0481372010215
 31
0.0
  0
LINE
  5
1B5
330
1F
100
AcDbEntity
  8
0
  6
Continuous
 62
     2
100
AcDbLine
 10
912.364203411891
 20
-191.7981372010215
 30
0.0
 11
912.6767034118906
 21
-191.9231372010215
 31
0.0
  0
LINE
  5
1B6
330
1F
100
AcDbEntity
  8
0
  6
Continuous
 62
     2
100
AcDbLine
 10
912.6767034118906
 20
-193.6731372010213
 30
0.0
 11
912.3642034118906
 21
-193.7981372010215
 31
0.0
  0
LINE
  5
1B7
330
1F
100
AcDbEntity
  8
0
  6
Continuous
 62
     2
100
AcDbLine
 10
913.1142034118906
 20
-190.8606372010213
 30
0.0
 11
913.0517034118906
 21
-190.5481372010215
 31
0.0
  0
LINE
  5
1B8
330
1F
100
AcDbEntity
  8
0
  6
Continuous
 62
     2
100
AcDbLine
 10
911.9892034118906
 20
-189.4231372010215
 30
0.0
 11
912.4267034118906
 21
-189.4231372010215
 31
0.0
  0
LINE
  5
1B9
330
1F
100
AcDbEntity
  8
0
  6
Continuous
 62
     2
100
AcDbLine
 10
912.6767034118906
 20
-189.4856372010215
 30
0.0
 11
912.9892034118906
 21
-189.6106372010217
 31
0.0
  0
LINE
  5
1BA
330
1F
100
AcDbEntity
  8
0
  6
Continuous
 62
     2
100
AcDbLine
 10
913.0517034118906
 20
-190.5481372010215
 30
0.0
 11
912.9267034118906
 21
-190.3606372010217
 31
0.0
  0
LINE
  5
1BB
330
1F
100
AcDbEntity
  8
0
  6
Continuous
 62
     2
100
AcDbLine
 10
912.9267034118906
 20
-190.3606372010217
 30
0.0
 11
912.6767034118906
 21
-190.1731372010215
 31
0.0
  0
LINE
  5
1BC
330
1F
100
AcDbEntity
  8
0
  6
Continuous
 62
     2
100
AcDbLine
 10
912.6767034118906
 20
-191.2356372010215
 30
0.0
 11
912.9892034118906
 21
-191.3606372010215
 31
0.0
  0
LINE
  5
1BD
330
1F
100
AcDbEntity
  8
0
  6
Continuous
 62
     2
100
AcDbLine
 10
912.6767034118906
 20
-194.3606372010215
 30
0.0
 11
912.9892034118906
 21
-194.2356372010213
 31
0.0
  0
LINE
  5
1BE
330
1F
100
AcDbEntity
  8
0
  6
Continuous
 62
     2
100
AcDbLine
 10
912.9267034118906
 20
-192.1106372010215
 30
0.0
 11
912.6767034118906
 21
-191.9231372010215
 31
0.0
  0
LINE
  5
1BF
330
1F
100
AcDbEntity
  8
0
  6
Continuous
 62
     2
100
AcDbLine
 10
913.0517034118906
 20
-192.2981372010215
 30
0.0
 11
912.9267034118906
 21
-192.1106372010215
 31
0.0
  0
LINE
  5
1C0
330
1F
100
AcDbEntity
  8
0
  6
Continuous
 62
     2
100
AcDbLine
 10
912.9267034118906
 20
-193.4856372010213
 30
0.0
 11
913.0517034118906
 21
-193.2981372010213
 31
0.0
  0
LINE
  5
1C1
330
1F
100
AcDbEntity
  8
0
  6
Continuous
 62
     2
100
AcDbLine
 10
912.6767034118906
 20
-193.6731372010213
 30
0.0
 11
912.9267034118906
 21
-193.4856372010213
 31
0.0
  0
LINE
  5
1C2
330
1F
100
AcDbEntity
  8
0
  6
Continuous
 62
     2
100
AcDbLine
 10
913.1239655763892
 20
-279.1107897868914
 30
0.0
 11
913.1239655763892
 21
-221.6231372010214
 31
0.0
  0
LINE
  5
1C3
330
1F
100
AcDbEntity
  8
0
  6
Continuous
 62
     2
100
AcDbLine
 10
908.5517034118906
 20
-189.4856372010217
 30
0.0
 11
908.0517034118906
 21
-189.4231372010215
 31
0.0
  0
LINE
  5
1C4
330
1F
100
AcDbEntity
  8
0
  6
Continuous
 62
     2
100
AcDbLine
 10
908.0517034118906
 20
-192.4231372010215
 30
0.0
 11
908.5517034118906
 21
-192.3606372010215
 31
0.0
  0
LINE
  5
1C5
330
1F
100
AcDbEntity
  8
0
  6
Continuous
 62
     2
100
AcDbLine
 10
907.9239655763894
 20
-221.6231372010214
 30
0.0
 11
907.9239655763894
 21
-279.1107897868914
 31
0.0
  0
LINE
  5
1C6
330
1F
100
AcDbEntity
  8
0
  6
Continuous
 62
     2
100
AcDbLine
 10
908.5517034118906
 20
-190.2356372010215
 30
0.0
 11
908.2392034118906
 21
-190.1106372010215
 31
0.0
  0
LINE
  5
1C7
330
1F
100
AcDbEntity
  8
0
  6
Continuous
 62
     2
100
AcDbLine
 10
908.1239655763892
 20
-159.6531388394935
 30
0.0
 11
908.1239655763892
 21
-155.0006598273596
 31
0.0
  0
LINE
  5
1C8
330
1F
100
AcDbEntity
  8
0
  6
Continuous
 62
     2
100
AcDbLine
 10
913.4572989097227
 20
-159.8456601476944
 30
0.0
 11
913.4572989097227
 21
-155.0006598273596
 31
0.0
  0
LINE
  5
1C9
330
1F
100
AcDbEntity
  8
0
  6
Continuous
 62
     2
100
AcDbLine
 10
907.8427155763892
 20
-165.0481599875875
 30
0.0
 11
907.8427155763892
 21
-169.4231599875875
 31
0.0
  0
LINE
  5
1CA
330
1F
100
AcDbEntity
  8
0
  6
Continuous
 62
     2
100
AcDbLine
 10
907.4572989097227
 20
-155.7698905965894
 30
0.0
 11
907.4572989097227
 21
-159.0764293784634
 31
0.0
  0
LINE
  5
1CB
330
1F
100
AcDbEntity
  8
0
  6
Continuous
 62
     2
100
AcDbLine
 10
912.9629842622143
 20
-198.9731372010214
 30
0.0
 11
914.7142034118905
 21
-198.9731372010214
 31
0.0
  0
LINE
  5
1CC
330
1F
100
AcDbEntity
  8
0
  6
Continuous
 62
     2
100
AcDbLine
 10
912.9629842622138
 20
-199.8731372010214
 30
0.0
 11
914.7142034118909
 21
-199.8731372010214
 31
0.0
  0
LINE
  5
1CD
330
1F
100
AcDbEntity
  8
0
  6
Continuous
 62
     2
100
AcDbLine
 10
912.9892034118906
 20
-189.6106372010217
 30
0.0
 11
913.176703411891
 21
-189.735637201022
 31
0.0
  0
LINE
  5
1CE
330
1F
100
AcDbEntity
  8
0
  6
Continuous
 62
     2
100
AcDbLine
 10
913.2177155763892
 20
-169.4231599875875
 30
0.0
 11
913.8427155763892
 21
-169.4231599875875
 31
0.0
  0
LINE
  5
1CF
330
1F
100
AcDbEntity
  8
0
  6
Continuous
 62
     2
100
AcDbLine
 10
913.5517034118906
 20
-193.6731372010213
 30
0.0
 11
913.3642034118906
 21
-193.9231372010213
 31
0.0
  0
LINE
  5
1D0
330
1F
100
AcDbEntity
  8
0
  6
Continuous
 62
     2
100
AcDbLine
 10
913.3642034118906
 20
-189.9231372010217
 30
0.0
 11
913.5517034118906
 21
-190.1731372010215
 31
0.0
  0
LINE
  5
1D1
330
1F
100
AcDbEntity
  8
0
  6
Continuous
 62
     2
100
AcDbLine
 10
911.7177155763892
 20
-165.5481599875875
 30
0.0
 11
913.2177155763892
 21
-169.4231599875875
 31
0.0
  0
LINE
  5
1D2
330
1F
100
AcDbEntity
  8
0
  6
Continuous
 62
     2
100
AcDbLine
 10
912.9892034118906
 20
-191.3606372010215
 30
0.0
 11
913.1767034118906
 21
-191.4856372010215
 31
0.0
  0
LINE
  5
1D3
330
1F
100
AcDbEntity
  8
0
  6
Continuous
 62
     2
100
AcDbLine
 10
913.1767034118906
 20
-191.4856372010215
 30
0.0
 11
913.3642034118901
 21
-191.6731372010211
 31
0.0
  0
LINE
  5
1D4
330
1F
100
AcDbEntity
  8
0
  6
Continuous
 62
     2
100
AcDbLine
 10
913.1767034118906
 20
-194.1106372010213
 30
0.0
 11
912.9892034118906
 21
-194.2356372010213
 31
0.0
  0
LINE
  5
1D5
330
1F
100
AcDbEntity
  8
0
  6
Continuous
 62
     2
100
AcDbLine
 10
913.3642034118906
 20
-193.9231372010213
 30
0.0
 11
913.1767034118906
 21
-194.1106372010213
 31
0.0
  0
LINE
  5
1D6
330
1F
100
AcDbEntity
  8
0
  6
Continuous
 62
     2
100
AcDbLine
 10
913.3642034118906
 20
-189.9231372010217
 30
0.0
 11
913.176703411891
 21
-189.735637201022
 31
0.0
  0
LINE
  5
1D7
330
1F
100
AcDbEntity
  8
0
  6
Continuous
 62
     2
100
AcDbLine
 10
913.1767034118906
 20
-192.6106372010213
 30
0.0
 11
913.0517034118906
 21
-192.2981372010215
 31
0.0
  0
LINE
  5
1D8
330
1F
100
AcDbEntity
  8
0
  6
Continuous
 62
     2
100
AcDbLine
 10
913.1767034118906
 20
-192.6106372010213
 30
0.0
 11
913.1767034118906
 21
-192.9856372010215
 31
0.0
  0
LINE
  5
1D9
330
1F
100
AcDbEntity
  8
0
  6
Continuous
 62
     2
100
AcDbLine
 10
913.0517034118906
 20
-193.2981372010213
 30
0.0
 11
913.1767034118906
 21
-192.9856372010215
 31
0.0
  0
LINE
  5
1DA
330
1F
100
AcDbEntity
  8
0
  6
Continuous
 62
     2
100
AcDbLine
 10
913.7392034118906
 20
-190.8606372010215
 30
0.0
 11
913.1142034118906
 21
-190.8606372010213
 31
0.0
  0
LINE
  5
1DB
330
1F
100
AcDbEntity
  8
0
  6
Continuous
 62
     2
100
AcDbLine
 10
913.6767034118906
 20
-193.4231372010211
 30
0.0
 11
913.5517034118906
 21
-193.6731372010213
 31
0.0
  0
LINE
  5
1DC
330
1F
100
AcDbEntity
  8
0
  6
Continuous
 62
     2
100
AcDbLine
 10
913.5517034118906
 20
-191.9231372010217
 30
0.0
 11
913.6767034118906
 21
-192.1731372010211
 31
0.0
  0
LINE
  5
1DD
330
1F
100
AcDbEntity
  8
0
  6
Continuous
 62
     2
100
AcDbLine
 10
913.5517034118906
 20
-191.9231372010217
 30
0.0
 11
913.3642034118901
 21
-191.6731372010211
 31
0.0
  0
LINE
  5
1DE
330
1F
100
AcDbEntity
  8
0
  6
Continuous
 62
     2
100
AcDbLine
 10
913.5517034118906
 20
-190.1731372010215
 30
0.0
 11
913.6767034118906
 21
-190.4231372010213
 31
0.0
  0
LINE
  5
1DF
330
1F
100
AcDbEntity
  8
0
  6
Continuous
 62
     2
100
AcDbLine
 10
913.5302155763892
 20
-168.4231599875875
 30
0.0
 11
911.9677155763892
 21
-164.4231599875875
 31
0.0
  0
LINE
  5
1E0
330
1F
100
AcDbEntity
  8
0
  6
Continuous
 62
     2
100
AcDbLine
 10
913.6767034118906
 20
-192.1731372010211
 30
0.0
 11
913.8017034118906
 21
-192.5481372010213
 31
0.0
  0
LINE
  5
1E1
330
1F
100
AcDbEntity
  8
0
  6
Continuous
 62
     2
100
AcDbLine
 10
913.6767034118906
 20
-193.4231372010211
 30
0.0
 11
913.8017034118906
 21
-193.0481372010213
 31
0.0
  0
LINE
  5
1E2
330
1F
100
AcDbEntity
  8
0
  6
Continuous
 62
     2
100
AcDbLine
 10
913.7392034118906
 20
-190.7356372010213
 30
0.0
 11
913.7392034118906
 21
-190.8606372010215
 31
0.0
  0
LINE
  5
1E3
330
1F
100
AcDbEntity
  8
0
  6
Continuous
 62
     2
100
AcDbLine
 10
913.8017034118906
 20
-192.5481372010213
 30
0.0
 11
913.8017034118906
 21
-193.0481372010213
 31
0.0
  0
LINE
  5
1E4
330
1F
100
AcDbEntity
  8
0
  6
Continuous
 62
     2
100
AcDbLine
 10
913.6767034118906
 20
-190.4231372010213
 30
0.0
 11
913.7392034118906
 21
-190.7356372010213
 31
0.0
  0
LINE
  5
1E5
330
1F
100
AcDbEntity
  8
0
  6
Continuous
 62
     7
100
AcDbLine
 10
932.66865325434
 20
-137.8727682866956
 30
0.0
 11
932.6686532543405
 21
-283.5543085233044
 31
0.0
  0
LINE
  5
1E6
330
1F
100
AcDbEntity
  8
0
  6
Continuous
 62
     2
100
AcDbLine
 10
597.4058117127641
 20
-289.7890638666773
 30
0.0
 11
596.650160312858
 21
-290.5447152665864
 31
0.0
  0
LINE
  5
1E7
330
1F
100
AcDbEntity
  8
0
  6
Continuous
 62
     2
100
AcDbLine
 10
923.9239655763894
 20
-137.4231589405124
 30
0.0
 11
923.9239655763894
 21
-134.9231589405124
 31
0.0
  0
LINE
  5
1E8
330
1F
100
AcDbEntity
  8
0
  6
Continuous
 62
     2
100
AcDbLine
 10
907.0642034119522
 20
-134.9231589405124
 30
0.0
 11
923.9239655763894
 21
-134.9231589405124
 31
0.0
  0
LINE
  5
1E9
330
1F
100
AcDbEntity
  8
0
  6
Continuous
 62
     7
100
AcDbLine
 10
932.3763430052692
 20
-137.4227809312754
 30
0.0
 11
931.6804346408254
 21
-137.0750653421037
 31
0.0
  0
LINE
  5
1EA
330
1F
100
AcDbEntity
  8
0
  6
Continuous
 62
     7
100
AcDbLine
 10
907.0642034119522
 20
-133.9231589405124
 30
0.0
 11
926.616540693493
 21
-133.9231589245137
 31
0.0
  0
LINE
  5
1EB
330
1F
100
AcDbEntity
  8
0
  6
Continuous
 62
     7
100
AcDbLine
 10
931.7245744744347
 20
-137.1116619303268
 30
0.0
 11
931.7251819792133
 21
-137.1121679357827
 31
0.0
  0
LINE
  5
1EC
330
1F
100
AcDbEntity
  8
0
  6
Continuous
 62
     7
100
AcDbLine
 10
1335.543437687249
 20
-283.5543085233438
 30
0.0
 11
1335.543437687314
 21
-280.3617510917289
 31
0.0
  0
LINE
  5
1ED
330
1F
100
AcDbEntity
  8
0
  6
Continuous
 62
     2
100
AcDbLine
 10
1349.962125337193
 20
-137.4938008176715
 30
0.0
 11
1349.962125337193
 21
-282.7986571234338
 31
0.0
  0
LINE
  5
1EE
330
1F
100
AcDbEntity
  8
0
  6
Continuous
 62
     7
100
AcDbLine
 10
1357.543437687316
 20
-210.4231372016927
 30
0.0
 11
1357.543437687252
 21
-281.8000275886798
 31
0.0
  0
LINE
  5
1EF
330
1F
100
AcDbEntity
  8
0
  6
Continuous
 62
     7
100
AcDbLine
 10
1335.54343768725
 20
-137.3719116578665
 30
0.0
 11
1335.543437687314
 21
-280.3617510917289
 31
0.0
  0
LINE
  5
1F0
330
1F
100
AcDbEntity
  8
0
  6
Continuous
 62
     7
100
AcDbLine
 10
1349.764200815099
 20
-136.9995278699467
 30
0.0
 11
1335.54343768725
 21
-137.3719116578665
 31
0.0
  0
LINE
  5
1F1
330
1F
100
AcDbEntity
  8
0
  6
Continuous
 62
     7
100
AcDbLine
 10
1357.543437687255
 20
-134.9231589405514
 30
0.0
 11
1357.543437687255
 21
-128.5402654242304
 31
0.0
  0
LINE
  5
1F2
330
1F
100
AcDbEntity
  8
0
  6
Continuous
 62
     7
100
AcDbLine
 10
1357.543437687255
 20
-134.9231589405514
 30
0.0
 11
1357.543437687323
 21
-210.4231372016925
 31
0.0
  0
LINE
  5
1F3
330
1F
100
AcDbEntity
  8
0
  6
Continuous
 62
     7
100
AcDbLine
 10
1335.543437687375
 20
-290.5447152666256
 30
0.0
 11
1335.543437687249
 21
-283.5543085233438
 31
0.0
  0
LINE
  5
1F4
330
1F
100
AcDbEntity
  8
0
  6
Continuous
 62
     7
100
AcDbLine
 10
1349.962125337195
 20
-289.7890638667168
 30
0.0
 11
1335.543437687375
 21
-290.5447152666256
 31
0.0
  0
LINE
  5
1F5
330
1F
100
AcDbEntity
  8
0
  6
Continuous
 62
     7
100
AcDbLine
 10
883.7110918321754
 20
-275.6805055136572
 30
0.0
 11
883.7110918321754
 21
-267.4000253347243
 31
0.0
  0
LINE
  5
1F6
330
1F
100
AcDbEntity
  8
0
  6
Continuous
 62
     7
100
AcDbLine
 10
866.6173149917284
 20
-275.6805055136584
 30
0.0
 11
866.6173149917284
 21
-267.4000253347243
 31
0.0
  0
LINE
  5
1F7
330
1F
100
AcDbEntity
  8
0
  6
Continuous
 62
     7
100
AcDbLine
 10
638.6173149917284
 20
-275.6805055136584
 30
0.0
 11
638.6173149917284
 21
-267.4000253347255
 31
0.0
  0
LINE
  5
1F8
330
1F
100
AcDbEntity
  8
0
  6
Continuous
 62
     7
100
AcDbLine
 10
655.7110918321755
 20
-267.4000253347255
 30
0.0
 11
655.7110918321755
 21
-275.6805055136572
 31
0.0
  0
LINE
  5
1F9
330
1F
100
AcDbEntity
  8
0
  6
Continuous
 62
     2
100
AcDbLine
 10
920.3239655763895
 20
-279.1107897868914
 30
0.0
 11
920.3239655763895
 21
-221.6231372010214
 31
0.0
  0
LINE
  5
1FA
102
{ACAD_REACTORS
330
2E0
102
}
330
1F
100
AcDbEntity
  8
0
  6
Continuous
 62
     2
100
AcDbLine
 10
902.7075303012479
 20
-157.2787957231856
 30
0.0
 11
911.1239655763892
 21
-152.4231599875266
 31
0.0
  0
LINE
  5
1FB
102
{ACAD_REACTORS
330
2E0
102
}
330
1F
100
AcDbEntity
  8
0
  6
Continuous
 62
     2
100
AcDbLine
 10
902.757502546597
 20
-157.3654142817907
 30
0.0
 11
911.1239655763892
 21
-152.5386086876795
 31
0.0
  0
LINE
  5
1FC
102
{ACAD_REACTORS
330
2E0
102
}
330
1F
100
AcDbEntity
  8
0
  6
Continuous
 62
     2
100
AcDbLine
 10
911.1239655763892
 20
-162.4231599875268
 30
0.0
 11
902.7075303012479
 21
-157.5675242518676
 31
0.0
  0
LINE
  5
1FD
102
{ACAD_REACTORS
330
2E0
102
}
330
1F
100
AcDbEntity
  8
0
  6
Continuous
 62
     2
100
AcDbLine
 10
911.1239655763892
 20
-162.3077112873746
 30
0.0
 11
902.757502546597
 21
-157.4809056932634
 31
0.0
  0
LINE
  5
1FE
102
{ACAD_REACTORS
330
2E0
102
}
330
1F
100
AcDbEntity
  8
0
  6
Continuous
 62
     2
100
AcDbLine
 10
911.1239655763892
 20
-152.4231599875266
 30
0.0
 11
919.540400851531
 21
-157.2787957231856
 31
0.0
  0
LINE
  5
1FF
102
{ACAD_REACTORS
330
2E0
102
}
330
1F
100
AcDbEntity
  8
0
  6
Continuous
 62
     2
100
AcDbLine
 10
911.1239655763892
 20
-152.5386086876795
 30
0.0
 11
919.4904286061823
 21
-157.36541428179
 31
0.0
  0
LINE
  5
200
102
{ACAD_REACTORS
330
2E0
102
}
330
1F
100
AcDbEntity
  8
0
  6
Continuous
 62
     2
100
AcDbLine
 10
919.540400851531
 20
-157.5675242518676
 30
0.0
 11
911.1239655763892
 21
-162.4231599875268
 31
0.0
  0
LINE
  5
201
102
{ACAD_REACTORS
330
2E0
102
}
330
1F
100
AcDbEntity
  8
0
  6
Continuous
 62
     2
100
AcDbLine
 10
919.4904286061818
 20
-157.4809056932634
 30
0.0
 11
911.1239655763892
 21
-162.3077112873746
 31
0.0
  0
ARC
  5
202
330
1F
100
AcDbEntity
  8
0
  6
Continuous
 62
     7
100
AcDbCircle
 10
598.1642034119828
 20
-117.0402654242036
 30
0.0
 40
5.130929607844564
100
AcDbArc
 50
0.0
 51
269.9999999999835
  0
ARC
  5
203
330
1F
100
AcDbEntity
  8
0
  6
Continuous
 62
     7
100
AcDbCircle
 10
1349.609788385233
 20
-128.5691827281373
 30
0.0
 40
7.999999999987288
100
AcDbArc
 50
349.1245400130167
 51
66.45121602034604
  0
ARC
  5
204
330
1F
100
AcDbEntity
  8
0
  6
Continuous
 62
     7
100
AcDbCircle
 10
1349.609788385227
 20
-128.5691827281248
 30
0.0
 40
7.999999999996449
100
AcDbArc
 50
312.5368325260545
 51
349.1245400129371
  0
ARC
  5
205
330
1F
100
AcDbEntity
  8
0
  6
Continuous
 62
     7
100
AcDbCircle
 10
1349.543437687332
 20
-128.5402654241976
 30
0.0
 40
2.499999999999314
100
AcDbArc
 50
36.102564987819
 51
224.5190258009232
  0
ARC
  5
206
330
1F
100
AcDbEntity
  8
0
  6
Continuous
 62
     7
100
AcDbCircle
 10
1349.543437687369
 20
-128.5402654241913
 30
0.0
 40
2.500000000030373
100
AcDbArc
 50
224.5190258004308
 51
314.8815546841473
  0
ARC
  5
207
330
1F
100
AcDbEntity
  8
0
  6
Continuous
 62
     7
100
AcDbCircle
 10
1349.543437687346
 20
-128.5402654242643
 30
0.0
 40
2.500000000027305
100
AcDbArc
 50
333.6407037123789
 51
36.10256498924458
  0
ARC
  5
208
330
1F
100
AcDbEntity
  8
0
  6
Continuous
 62
     7
100
AcDbCircle
 10
1349.609788385222
 20
-128.5691827281266
 30
0.0
 40
7.99999999999824
100
AcDbArc
 50
271.5000000000291
 51
312.5368325260897
  0
ARC
  5
209
330
1F
100
AcDbEntity
  8
1
  6
Continuous
 62
     7
100
AcDbCircle
 10
1336.055589522514
 20
-137.4391816533808
 30
0.0
 40
0.5122886253198423
100
AcDbArc
 50
92.82408950941443
 51
178.6759104905141
  0
ARC
  5
20A
330
1F
100
AcDbEntity
  8
1
  6
Continuous
 62
     7
100
AcDbCircle
 10
611.6265305020419
 20
-116.1486756126712
 30
0.0
 40
8.331398398561786
100
AcDbArc
 50
92.94903729519636
 51
180.026872541821
  0
ARC
  5
20B
330
1F
100
AcDbEntity
  8
1
  6
Continuous
 62
     7
100
AcDbCircle
 10
596.7974738244753
 20
-130.3044625827881
 30
0.0
 40
8.134578201451015
100
AcDbArc
 50
88.97146416785375
 51
178.9725877183239
  0
ARC
  5
20C
330
1F
100
AcDbEntity
  8
1
  6
Continuous
 62
     7
100
AcDbCircle
 10
1335.025113963798
 20
-290.0528444188562
 30
0.0
 40
0.518615314664071
100
AcDbArc
 50
274.9214205362484
 51
358.0785794637386
  0
ARC
  5
20D
330
1F
100
AcDbEntity
  8
0
  6
Continuous
 62
     7
100
AcDbCircle
 10
1349.543437687366
 20
-128.5402654241542
 30
0.0
 40
2.500000000058372
100
AcDbArc
 50
314.8815546835992
 51
333.6407037099166
  0
ARC
  5
20E
330
1F
100
AcDbEntity
  8
0
  6
Continuous
 62
     7
100
AcDbCircle
 10
713.6642034119263
 20
-117.0402654242176
 30
0.0
 40
5.012750227031097
100
AcDbArc
 50
315.7156710997663
 51
0.0
  0
ARC
  5
20F
330
1F
100
AcDbEntity
  8
0
  6
Continuous
 62
     7
100
AcDbCircle
 10
713.6642034119263
 20
-117.0402654242176
 30
0.0
 40
5.01275022703112
100
AcDbArc
 50
0.0
 51
224.2843289002336
  0
ARC
  5
210
330
1F
100
AcDbEntity
  8
1
  6
Continuous
 62
     2
100
AcDbCircle
 10
598.6044412475172
 20
-279.1107897868914
 30
0.0
 40
0.2000000000000455
100
AcDbArc
 50
180.0
 51
0.0
  0
ARC
  5
211
330
1F
100
AcDbEntity
  8
1
  6
Continuous
 62
     2
100
AcDbCircle
 10
601.0044412475173
 20
-279.1107897868914
 30
0.0
 40
0.2000000000002728
100
AcDbArc
 50
180.0
 51
0.0
  0
ARC
  5
212
330
1F
100
AcDbEntity
  8
1
  6
Continuous
 62
     2
100
AcDbCircle
 10
603.4044412475174
 20
-279.1107897868914
 30
0.0
 40
0.2000000000005002
100
AcDbArc
 50
180.0
 51
0.0
  0
ARC
  5
213
330
1F
100
AcDbEntity
  8
1
  6
Continuous
 62
     2
100
AcDbCircle
 10
605.8044412475174
 20
-279.1107897868914
 30
0.0
 40
0.2000000000003865
100
AcDbArc
 50
180.0
 51
0.0
  0
ARC
  5
214
330
1F
100
AcDbEntity
  8
1
  6
Continuous
 62
     2
100
AcDbCircle
 10
608.2044412475171
 20
-279.1107897868914
 30
0.0
 40
0.2000000000000455
100
AcDbArc
 50
180.0
 51
0.0
  0
ARC
  5
215
330
1F
100
AcDbEntity
  8
1
  6
Continuous
 62
     2
100
AcDbCircle
 10
610.6044412475172
 20
-279.1107897868914
 30
0.0
 40
0.2000000000002728
100
AcDbArc
 50
180.0
 51
0.0
  0
ARC
  5
216
330
1F
100
AcDbEntity
  8
1
  6
Continuous
 62
     2
100
AcDbCircle
 10
613.0044412475171
 20
-279.1107897868914
 30
0.0
 40
0.2000000000000455
100
AcDbArc
 50
180.0
 51
0.0
  0
ARC
  5
217
330
1F
100
AcDbEntity
  8
1
  6
Continuous
 62
     2
100
AcDbCircle
 10
615.4044412475173
 20
-279.1107897868914
 30
0.0
 40
0.2000000000003865
100
AcDbArc
 50
180.0
 51
0.0
  0
ARC
  5
218
330
1F
100
AcDbEntity
  8
1
  6
Continuous
 62
     2
100
AcDbCircle
 10
617.804441247517
 20
-279.1107897868914
 30
0.0
 40
0.2000000000000455
100
AcDbArc
 50
180.0
 51
0.0
  0
ARC
  5
219
330
1F
100
AcDbEntity
  8
1
  6
Continuous
 62
     2
100
AcDbCircle
 10
620.2044412475171
 20
-279.1107897868914
 30
0.0
 40
0.2000000000000455
100
AcDbArc
 50
180.0
 51
0.0
  0
ARC
  5
21A
330
1F
100
AcDbEntity
  8
1
  6
Continuous
 62
     2
100
AcDbCircle
 10
622.604441247517
 20
-279.1107897868914
 30
0.0
 40
0.2000000000000455
100
AcDbArc
 50
180.0
 51
0.0
  0
ARC
  5
21B
330
1F
100
AcDbEntity
  8
1
  6
Continuous
 62
     2
100
AcDbCircle
 10
598.6044412475172
 20
-137.6231589405123
 30
0.0
 40
0.1999999999999318
100
AcDbArc
 50
0.0
 51
180.0000000000326
  0
ARC
  5
21C
330
1F
100
AcDbEntity
  8
1
  6
Continuous
 62
     2
100
AcDbCircle
 10
601.0044412475173
 20
-137.6231589405123
 30
0.0
 40
0.1999999999998181
100
AcDbArc
 50
0.0
 51
180.0000000000326
  0
ARC
  5
21D
330
1F
100
AcDbEntity
  8
1
  6
Continuous
 62
     2
100
AcDbCircle
 10
603.4044412475173
 20
-137.6231589405123
 30
0.0
 40
0.1999999999999318
100
AcDbArc
 50
0.0
 51
180.0000000000326
  0
ARC
  5
21E
330
1F
100
AcDbEntity
  8
1
  6
Continuous
 62
     2
100
AcDbCircle
 10
605.8044412475172
 20
-137.6231589405123
 30
0.0
 40
0.1999999999999318
100
AcDbArc
 50
0.0
 51
180.0000000000326
  0
ARC
  5
21F
330
1F
100
AcDbEntity
  8
1
  6
Continuous
 62
     2
100
AcDbCircle
 10
608.2044412475171
 20
-137.6231589405123
 30
0.0
 40
0.2000000000001592
100
AcDbArc
 50
0.0
 51
180.0000000000326
  0
ARC
  5
220
330
1F
100
AcDbEntity
  8
1
  6
Continuous
 62
     2
100
AcDbCircle
 10
610.6044412475172
 20
-137.6231589405123
 30
0.0
 40
0.1999999999998181
100
AcDbArc
 50
0.0
 51
180.0000000000326
  0
ARC
  5
221
330
1F
100
AcDbEntity
  8
1
  6
Continuous
 62
     2
100
AcDbCircle
 10
613.0044412475171
 20
-137.6231589405123
 30
0.0
 40
0.2000000000000455
100
AcDbArc
 50
0.0
 51
180.0000000000326
  0
ARC
  5
222
330
1F
100
AcDbEntity
  8
1
  6
Continuous
 62
     2
100
AcDbCircle
 10
615.4044412475172
 20
-137.6231589405123
 30
0.0
 40
0.2000000000000455
100
AcDbArc
 50
0.0
 51
180.0000000000326
  0
ARC
  5
223
330
1F
100
AcDbEntity
  8
1
  6
Continuous
 62
     2
100
AcDbCircle
 10
617.804441247517
 20
-137.6231589405123
 30
0.0
 40
0.2000000000000455
100
AcDbArc
 50
0.0
 51
180.0000000000326
  0
ARC
  5
224
330
1F
100
AcDbEntity
  8
1
  6
Continuous
 62
     2
100
AcDbCircle
 10
620.2044412475169
 20
-137.6231589405123
 30
0.0
 40
0.2000000000002728
100
AcDbArc
 50
0.0
 51
180.0000000000326
  0
ARC
  5
225
330
1F
100
AcDbEntity
  8
1
  6
Continuous
 62
     2
100
AcDbCircle
 10
622.604441247517
 20
-137.6231589405123
 30
0.0
 40
0.2000000000000455
100
AcDbArc
 50
0.0
 51
180.0000000000326
  0
ARC
  5
226
330
1F
100
AcDbEntity
  8
1
  6
Continuous
 62
     2
100
AcDbCircle
 10
898.5239655763884
 20
-279.1107897868914
 30
0.0
 40
0.1999999999993634
100
AcDbArc
 50
180.0
 51
0.0
  0
ARC
  5
227
330
1F
100
AcDbEntity
  8
1
  6
Continuous
 62
     2
100
AcDbCircle
 10
900.9239655763885
 20
-279.1107897868914
 30
0.0
 40
0.1999999999993634
100
AcDbArc
 50
180.0
 51
0.0
  0
ARC
  5
228
330
1F
100
AcDbEntity
  8
1
  6
Continuous
 62
     2
100
AcDbCircle
 10
903.3239655763886
 20
-279.1107897868914
 30
0.0
 40
0.1999999999993634
100
AcDbArc
 50
180.0
 51
0.0
  0
ARC
  5
229
330
1F
100
AcDbEntity
  8
1
  6
Continuous
 62
     2
100
AcDbCircle
 10
905.7239655763887
 20
-279.1107897868914
 30
0.0
 40
0.1999999999993634
100
AcDbArc
 50
180.0
 51
0.0
  0
ARC
  5
22A
330
1F
100
AcDbEntity
  8
1
  6
Continuous
 62
     2
100
AcDbCircle
 10
908.1239655763887
 20
-279.1107897868914
 30
0.0
 40
0.1999999999993634
100
AcDbArc
 50
180.0
 51
0.0
  0
ARC
  5
22B
330
1F
100
AcDbEntity
  8
1
  6
Continuous
 62
     2
100
AcDbCircle
 10
910.5239655763888
 20
-279.1107897868914
 30
0.0
 40
0.1999999999998181
100
AcDbArc
 50
180.0
 51
0.0
  0
ARC
  5
22C
330
1F
100
AcDbEntity
  8
1
  6
Continuous
 62
     2
100
AcDbCircle
 10
912.9239655763889
 20
-279.1107897868914
 30
0.0
 40
0.1999999999998181
100
AcDbArc
 50
180.0
 51
0.0
  0
ARC
  5
22D
330
1F
100
AcDbEntity
  8
1
  6
Continuous
 62
     2
100
AcDbCircle
 10
915.323965576389
 20
-279.1107897868914
 30
0.0
 40
0.1999999999998181
100
AcDbArc
 50
180.0
 51
0.0
  0
ARC
  5
22E
330
1F
100
AcDbEntity
  8
1
  6
Continuous
 62
     2
100
AcDbCircle
 10
917.7239655763891
 20
-279.1107897868914
 30
0.0
 40
0.1999999999998181
100
AcDbArc
 50
180.0
 51
0.0
  0
ARC
  5
22F
330
1F
100
AcDbEntity
  8
1
  6
Continuous
 62
     2
100
AcDbCircle
 10
920.1239655763892
 20
-279.1107897868914
 30
0.0
 40
0.1999999999998181
100
AcDbArc
 50
180.0
 51
0.0
  0
ARC
  5
230
330
1F
100
AcDbEntity
  8
1
  6
Continuous
 62
     2
100
AcDbCircle
 10
922.5239655763893
 20
-279.1107897868914
 30
0.0
 40
0.1999999999998181
100
AcDbArc
 50
180.0
 51
0.0
  0
ARC
  5
231
330
1F
100
AcDbEntity
  8
1
  6
Continuous
 62
     2
100
AcDbCircle
 10
903.3239655763922
 20
-221.6231372010214
 30
0.0
 40
0.1999999999970896
100
AcDbArc
 50
0.0
 51
180.0
  0
ARC
  5
232
330
1F
100
AcDbEntity
  8
1
  6
Continuous
 62
     2
100
AcDbCircle
 10
905.7239655763918
 20
-221.6231372010214
 30
0.0
 40
0.1999999999975444
100
AcDbArc
 50
0.0
 51
180.0
  0
ARC
  5
233
330
1F
100
AcDbEntity
  8
1
  6
Continuous
 62
     2
100
AcDbCircle
 10
908.1239655763915
 20
-221.6231372010214
 30
0.0
 40
0.1999999999979991
100
AcDbArc
 50
0.0
 51
180.0
  0
ARC
  5
234
330
1F
100
AcDbEntity
  8
1
  6
Continuous
 62
     2
100
AcDbCircle
 10
910.5239655763911
 20
-221.6231372010214
 30
0.0
 40
0.1999999999979991
100
AcDbArc
 50
0.0
 51
180.0
  0
ARC
  5
235
330
1F
100
AcDbEntity
  8
1
  6
Continuous
 62
     2
100
AcDbCircle
 10
912.9239655763907
 20
-221.6231372010214
 30
0.0
 40
0.1999999999984539
100
AcDbArc
 50
0.0
 51
180.0
  0
ARC
  5
236
330
1F
100
AcDbEntity
  8
1
  6
Continuous
 62
     2
100
AcDbCircle
 10
915.3239655763904
 20
-221.6231372010214
 30
0.0
 40
0.1999999999989086
100
AcDbArc
 50
0.0
 51
180.0
  0
ARC
  5
237
330
1F
100
AcDbEntity
  8
1
  6
Continuous
 62
     2
100
AcDbCircle
 10
917.72396557639
 20
-221.6231372010214
 30
0.0
 40
0.1999999999993634
100
AcDbArc
 50
0.0
 51
180.0
  0
ARC
  5
238
330
1F
100
AcDbEntity
  8
1
  6
Continuous
 62
     2
100
AcDbCircle
 10
920.1239655763897
 20
-221.6231372010214
 30
0.0
 40
0.1999999999998181
100
AcDbArc
 50
0.0
 51
180.0
  0
ARC
  5
239
330
1F
100
AcDbEntity
  8
1
  6
Continuous
 62
     2
100
AcDbCircle
 10
920.1239655763901
 20
-146.2232897834026
 30
0.0
 40
0.2000000000007276
100
AcDbArc
 50
180.0
 51
0.0
  0
ARC
  5
23A
330
1F
100
AcDbEntity
  8
1
  6
Continuous
 62
     2
100
AcDbCircle
 10
917.72396557639
 20
-146.2232897834026
 30
0.0
 40
0.2000000000007276
100
AcDbArc
 50
180.0
 51
0.0
  0
ARC
  5
23B
330
1F
100
AcDbEntity
  8
1
  6
Continuous
 62
     2
100
AcDbCircle
 10
915.3239655763899
 20
-146.2232897834026
 30
0.0
 40
0.2000000000007276
100
AcDbArc
 50
180.0
 51
0.0
  0
ARC
  5
23C
330
1F
100
AcDbEntity
  8
1
  6
Continuous
 62
     2
100
AcDbCircle
 10
912.9239655763898
 20
-146.2232897834026
 30
0.0
 40
0.2000000000007276
100
AcDbArc
 50
180.0
 51
0.0
  0
ARC
  5
23D
330
1F
100
AcDbEntity
  8
1
  6
Continuous
 62
     2
100
AcDbCircle
 10
910.5239655763897
 20
-146.2232897834026
 30
0.0
 40
0.2000000000007276
100
AcDbArc
 50
180.0
 51
0.0
  0
ARC
  5
23E
330
1F
100
AcDbEntity
  8
1
  6
Continuous
 62
     2
100
AcDbCircle
 10
908.1239655763897
 20
-146.2232897834026
 30
0.0
 40
0.2000000000002728
100
AcDbArc
 50
180.0
 51
0.0
  0
ARC
  5
23F
330
1F
100
AcDbEntity
  8
1
  6
Continuous
 62
     2
100
AcDbCircle
 10
905.7239655763896
 20
-146.2232897834026
 30
0.0
 40
0.2000000000002728
100
AcDbArc
 50
180.0
 51
0.0
  0
ARC
  5
240
330
1F
100
AcDbEntity
  8
1
  6
Continuous
 62
     2
100
AcDbCircle
 10
903.3239655763895
 20
-146.2232897834026
 30
0.0
 40
0.2000000000002728
100
AcDbArc
 50
180.0
 51
0.0
  0
ARC
  5
241
330
1F
100
AcDbEntity
  8
1
  6
Continuous
 62
     2
100
AcDbCircle
 10
900.9239655763894
 20
-146.2232897834026
 30
0.0
 40
0.1999999999997044
100
AcDbArc
 50
270.0
 51
0.0
  0
ARC
  5
242
330
1F
100
AcDbEntity
  8
1
  6
Continuous
 62
     2
100
AcDbCircle
 10
922.5239655763907
 20
-137.6231589405124
 30
0.0
 40
0.1999999999989086
100
AcDbArc
 50
0.0
 51
180.0
  0
ARC
  5
243
330
1F
100
AcDbEntity
  8
1
  6
Continuous
 62
     2
100
AcDbCircle
 10
920.1239655763906
 20
-137.6231589405124
 30
0.0
 40
0.1999999999989086
100
AcDbArc
 50
0.0
 51
180.0
  0
ARC
  5
244
330
1F
100
AcDbEntity
  8
1
  6
Continuous
 62
     2
100
AcDbCircle
 10
917.7239655763905
 20
-137.6231589405124
 30
0.0
 40
0.1999999999989086
100
AcDbArc
 50
0.0
 51
180.0
  0
ARC
  5
245
330
1F
100
AcDbEntity
  8
1
  6
Continuous
 62
     2
100
AcDbCircle
 10
915.3239655763904
 20
-137.6231589405124
 30
0.0
 40
0.1999999999989086
100
AcDbArc
 50
0.0
 51
180.0
  0
ARC
  5
246
330
1F
100
AcDbEntity
  8
1
  6
Continuous
 62
     2
100
AcDbCircle
 10
912.9239655763903
 20
-137.6231589405124
 30
0.0
 40
0.1999999999989086
100
AcDbArc
 50
0.0
 51
180.0
  0
ARC
  5
247
330
1F
100
AcDbEntity
  8
1
  6
Continuous
 62
     2
100
AcDbCircle
 10
910.5239655763902
 20
-137.6231589405124
 30
0.0
 40
0.1999999999989086
100
AcDbArc
 50
0.0
 51
180.0
  0
ARC
  5
248
330
1F
100
AcDbEntity
  8
1
  6
Continuous
 62
     2
100
AcDbCircle
 10
908.1239655763901
 20
-137.6231589405124
 30
0.0
 40
0.1999999999993634
100
AcDbArc
 50
0.0
 51
180.0
  0
ARC
  5
249
330
1F
100
AcDbEntity
  8
1
  6
Continuous
 62
     2
100
AcDbCircle
 10
905.72396557639
 20
-137.6231589405124
 30
0.0
 40
0.1999999999993634
100
AcDbArc
 50
0.0
 51
180.0
  0
ARC
  5
24A
330
1F
100
AcDbEntity
  8
1
  6
Continuous
 62
     2
100
AcDbCircle
 10
903.3239655763899
 20
-137.6231589405124
 30
0.0
 40
0.1999999999993634
100
AcDbArc
 50
0.0
 51
180.0
  0
ARC
  5
24B
330
1F
100
AcDbEntity
  8
1
  6
Continuous
 62
     2
100
AcDbCircle
 10
900.9239655763894
 20
-137.6231589405124
 30
0.0
 40
0.1999999999998181
100
AcDbArc
 50
0.0
 51
180.0
  0
ARC
  5
24C
330
1F
100
AcDbEntity
  8
1
  6
Continuous
 62
     2
100
AcDbCircle
 10
898.5239655763893
 20
-137.6231589405124
 30
0.0
 40
0.2000000000002728
100
AcDbArc
 50
0.0
 51
180.0
  0
ARC
  5
24D
330
1F
100
AcDbEntity
  8
0
  6
Continuous
 62
     2
100
AcDbCircle
 10
907.1239655763892
 20
-159.0764293784634
 30
0.0
 40
0.3333333333330302
100
AcDbArc
 50
180.0
 51
0.0
  0
ARC
  5
24E
330
1F
100
AcDbEntity
  8
0
  6
Continuous
 62
     2
100
AcDbCircle
 10
907.1239655763892
 20
-155.7698905965894
 30
0.0
 40
0.3333333333334849
100
AcDbArc
 50
0.0
 51
180.0
  0
ARC
  5
24F
330
1F
100
AcDbEntity
  8
0
  6
Continuous
 62
     2
100
AcDbCircle
 10
909.9142034118903
 20
-199.4231372010214
 30
0.0
 40
2.999999999999915
100
AcDbArc
 50
90.0
 51
270.0000000000086
  0
ARC
  5
250
330
1F
100
AcDbEntity
  8
0
  6
Continuous
 62
     2
100
AcDbCircle
 10
915.1239655763892
 20
-157.4231599875268
 30
0.0
 40
0.3333333333326038
100
AcDbArc
 50
270.0
 51
90.0
  0
ARC
  5
251
330
1F
100
AcDbEntity
  8
0
  6
Continuous
 62
     2
100
AcDbCircle
 10
915.1239655763892
 20
-155.7698905965894
 30
0.0
 40
0.3333333333334713
100
AcDbArc
 50
240.018360631227
 51
60.01836063103789
  0
ARC
  5
252
330
1F
100
AcDbEntity
  8
0
  6
Continuous
 62
     2
100
AcDbCircle
 10
915.1239655763892
 20
-159.0764293784634
 30
0.0
 40
0.3333333333329107
100
AcDbArc
 50
299.9816393689189
 51
119.9816393687932
  0
ARC
  5
253
330
1F
100
AcDbEntity
  8
0
  6
Continuous
 62
     2
100
AcDbCircle
 10
913.7906322430562
 20
-159.8456601476944
 30
0.0
 40
0.3333333333334849
100
AcDbArc
 50
180.0
 51
299.9816393688651
  0
ARC
  5
254
330
1F
100
AcDbEntity
  8
0
  6
Continuous
 62
     2
100
AcDbCircle
 10
913.7906322430562
 20
-155.0006598273596
 30
0.0
 40
0.3333333333334523
100
AcDbArc
 50
60.01836063113488
 51
180.0
  0
ARC
  5
255
330
1F
100
AcDbEntity
  8
0
  6
Continuous
 62
     2
100
AcDbCircle
 10
909.9142034118903
 20
-199.4231372010214
 30
0.0
 40
2.099999999999994
100
AcDbArc
 50
90.0
 51
270.0000000000124
  0
ARC
  5
256
330
1F
100
AcDbEntity
  8
0
  6
Continuous
 62
     2
100
AcDbCircle
 10
912.5256660305807
 20
-154.1919426754914
 30
0.0
 40
0.2649662124754286
100
AcDbArc
 50
0.0
 51
150.0000000001456
  0
ARC
  5
257
330
1F
100
AcDbEntity
  8
0
  6
Continuous
 62
     2
100
AcDbCircle
 10
909.7906322430562
 20
-159.0755749148937
 30
0.0
 40
0.3333333333334849
100
AcDbArc
 50
180.0
 51
0.0
  0
ARC
  5
258
330
1F
100
AcDbEntity
  8
0
  6
Continuous
 62
     2
100
AcDbCircle
 10
909.7222651221977
 20
-154.1919426754914
 30
0.0
 40
0.2649662124751736
100
AcDbArc
 50
29.99999999985442
 51
180.0
  0
ARC
  5
259
330
1F
100
AcDbEntity
  8
0
  6
Continuous
 62
     2
100
AcDbCircle
 10
910.7906322430562
 20
-161.1918139938477
 30
0.0
 40
0.3333333333334523
100
AcDbArc
 50
240.0183606311349
 51
60.01836063113244
  0
ARC
  5
25A
330
1F
100
AcDbEntity
  8
0
  6
Continuous
 62
     2
100
AcDbCircle
 10
911.1239655763892
 20
-157.0898266541938
 30
0.0
 40
0.1666666666664665
100
AcDbArc
 50
209.9999999998178
 51
330.000000000123
  0
ARC
  5
25B
330
1F
100
AcDbEntity
  8
0
  6
Continuous
 62
     2
100
AcDbCircle
 10
912.4572989097227
 20
-160.6148909169244
 30
0.0
 40
0.3333333333334849
100
AcDbArc
 50
180.0
 51
0.0
  0
ARC
  5
25C
330
1F
100
AcDbEntity
  8
0
  6
Continuous
 62
     2
100
AcDbCircle
 10
908.4572989097227
 20
-155.0006598273596
 30
0.0
 40
0.3333333333334849
100
AcDbArc
 50
0.0
 51
180.0
  0
ARC
  5
25D
330
1F
100
AcDbEntity
  8
0
  6
Continuous
 62
     2
100
AcDbCircle
 10
908.7906322430562
 20
-159.6531388394935
 30
0.0
 40
0.6666666666669698
100
AcDbArc
 50
180.0
 51
240.0183606311336
  0
ARC
  5
25E
330
1F
100
AcDbEntity
  8
0
  6
Continuous
 62
     2
100
AcDbCircle
 10
915.0142034118907
 20
-199.4231372010214
 30
0.0
 40
2.999999999999915
100
AcDbArc
 50
90.0
 51
270.0
  0
ARC
  5
25F
330
1F
100
AcDbEntity
  8
0
  6
Continuous
 62
     2
100
AcDbCircle
 10
915.0142034118907
 20
-199.4231372010214
 30
0.0
 40
2.100000000000244
100
AcDbArc
 50
192.3736251161868
 51
270.0
  0
ARC
  5
260
330
1F
100
AcDbEntity
  8
0
  6
Continuous
 62
     2
100
AcDbCircle
 10
915.0142034118907
 20
-199.4231372010214
 30
0.0
 40
2.099999999999994
100
AcDbArc
 50
90.0
 51
167.6263748838098
  0
ARC
  5
261
330
1F
100
AcDbEntity
  8
0
  6
Continuous
 62
     7
100
AcDbCircle
 10
1349.541696754487
 20
-128.5024406076542
 30
0.0
 40
8.50000000000013
100
AcDbArc
 50
271.4999999999667
 51
272.5107481119691
  0
ARC
  5
262
330
1F
100
AcDbEntity
  8
0
  6
Continuous
 62
     7
100
AcDbCircle
 10
1356.543437687255
 20
-134.9231589405514
 30
0.0
 40
1.0
100
AcDbArc
 50
0.0
 51
137.4786346902882
  0
ARC
  5
263
330
1F
100
AcDbEntity
  8
0
  6
Continuous
 62
     7
100
AcDbCircle
 10
1349.541696754487
 20
-128.5024406076542
 30
0.0
 40
8.50000000000014
100
AcDbArc
 50
272.5107481119691
 51
317.4786346901059
  0
ARC
  5
264
330
1F
100
AcDbEntity
  8
0
  6
Continuous
 62
     7
100
AcDbCircle
 10
1349.54343768725
 20
-281.8000275886798
 30
0.0
 40
8.000000000000448
100
AcDbArc
 50
273.0000000000103
 51
0.0
  0
ARC
  5
265
330
1F
100
AcDbEntity
  8
0
  6
Continuous
 62
     7
100
AcDbCircle
 10
875.1642034119517
 20
-271.5402654241915
 30
0.0
 40
9.496888420223483
100
AcDbArc
 50
205.846239137123
 51
334.1537608628846
  0
ARC
  5
266
330
1F
100
AcDbEntity
  8
0
  6
Continuous
 62
     7
100
AcDbCircle
 10
875.1642034119517
 20
-271.5402654241915
 30
0.0
 40
9.496888420224016
100
AcDbArc
 50
25.8462391371234
 51
154.1537608628754
  0
ARC
  5
267
330
1F
100
AcDbEntity
  8
0
  6
Continuous
 62
     7
100
AcDbCircle
 10
647.1642034119519
 20
-271.5402654241915
 30
0.0
 40
9.496888420223687
100
AcDbArc
 50
205.8462391371224
 51
334.1537608628843
  0
ARC
  5
268
330
1F
100
AcDbEntity
  8
0
  6
Continuous
 62
     7
100
AcDbCircle
 10
647.1642034119519
 20
-271.5402654241915
 30
0.0
 40
9.496888420223394
100
AcDbArc
 50
25.84623913711722
 51
154.1537608628825
  0
ARC
  5
269
330
1F
100
AcDbEntity
  8
1
  6
Continuous
 62
     2
100
AcDbCircle
 10
900.9239655763894
 20
-146.2232897834026
 30
0.0
 40
0.2000000000002728
100
AcDbArc
 50
180.0
 51
270.0
  0
ARC
  5
26A
330
1F
100
AcDbEntity
  8
1
  6
Continuous
 62
     2
100
AcDbCircle
 10
900.9239655763926
 20
-221.6231372010214
 30
0.0
 40
0.1999999999966349
100
AcDbArc
 50
0.0
 51
180.0
  0
ARC
  5
26B
102
{ACAD_REACTORS
330
2E0
102
}
330
1F
100
AcDbEntity
  8
0
  6
Continuous
 62
     2
100
AcDbCircle
 10
919.4571137759493
 20
-157.4231599875268
 30
0.0
 40
0.0666666666666193
100
AcDbArc
 50
299.9816393687199
 51
60.01836063101477
  0
ARC
  5
26C
102
{ACAD_REACTORS
330
2E0
102
}
330
1F
100
AcDbEntity
  8
0
  6
Continuous
 62
     2
100
AcDbCircle
 10
919.4571137759493
 20
-157.4231599875268
 30
0.0
 40
0.1666666666661722
100
AcDbArc
 50
299.981639368975
 51
60.0183606310885
  0
ARC
  5
26D
102
{ACAD_REACTORS
330
2E0
102
}
330
1F
100
AcDbEntity
  8
0
  6
Continuous
 62
     2
100
AcDbCircle
 10
902.7908173768295
 20
-157.4231599875268
 30
0.0
 40
0.0666666666661761
100
AcDbArc
 50
119.9816393689397
 51
240.01836063128
  0
ARC
  5
26E
102
{ACAD_REACTORS
330
2E0
102
}
330
1F
100
AcDbEntity
  8
0
  6
Continuous
 62
     2
100
AcDbCircle
 10
902.7908173768295
 20
-157.4231599875268
 30
0.0
 40
0.1666666666664923
100
AcDbArc
 50
119.9816393689115
 51
240.018360631025
  0
CIRCLE
  5
26F
330
1F
100
AcDbEntity
  8
0
  6
Continuous
 62
     7
100
AcDbCircle
 10
924.1642034119355
 20
-117.0402654242035
 30
0.0
 40
5.012750227026572
  0
CIRCLE
  5
270
330
1F
100
AcDbEntity
  8
0
  6
Continuous
 62
     7
100
AcDbCircle
 10
598.1642034119828
 20
-117.0402654242036
 30
0.0
 40
2.199999999999932
  0
CIRCLE
  5
271
330
1F
100
AcDbEntity
  8
0
  6
Continuous
 62
     7
100
AcDbCircle
 10
713.6642034119263
 20
-117.0402654242176
 30
0.0
 40
2.200000000004593
  0
CIRCLE
  5
272
330
1F
100
AcDbEntity
  8
0
  6
Continuous
 62
     7
100
AcDbCircle
 10
924.1642034119355
 20
-117.0402654242035
 30
0.0
 40
2.200000000000273
  0
CIRCLE
  5
273
330
1F
100
AcDbEntity
  8
1
  6
Continuous
 62
     7
100
AcDbCircle
 10
647.1642034119519
 20
-271.5402654241915
 30
0.0
 40
2.199999999999818
  0
CIRCLE
  5
274
330
1F
100
AcDbEntity
  8
1
  6
Continuous
 62
     7
100
AcDbCircle
 10
875.1642034119517
 20
-271.5402654241915
 30
0.0
 40
2.199999999999818
  0
CIRCLE
  5
275
330
1F
100
AcDbEntity
  8
0
  6
Continuous
 62
     7
100
AcDbCircle
 10
875.1642034119517
 20
-271.5402654241915
 30
0.0
 40
5.499999999995907
  0
CIRCLE
  5
276
330
1F
100
AcDbEntity
  8
0
  6
Continuous
 62
     7
100
AcDbCircle
 10
647.164203411956
 20
-271.5402654241915
 30
0.0
 40
5.5
  0
SPLINE
  5
277
330
1F
100
AcDbEntity
  8
0
  6
Continuous
 62
     2
100
AcDbSpline
210
0.0
220
0.0
230
1.0
 70
     8
 71
     3
 72
    19
 73
    15
 74
    13
 42
0.000000001
 43
0.0000000001
 44
0.00000001
 40
0.0
 40
0.0
 40
0.0
 40
0.0
 40
0.911938372791648
 40
1.808044187359369
 40
2.673083724603279
 40
3.492358658700649
 40
4.251958991477622
 40
4.939007484146275
 40
5.541891926267621
 40
6.050485548996516
 40
6.456373931429537
 40
6.753160369191443
 40
6.937239125140888
 40
7.013619222751481
 40
7.013619222751481
 40
7.013619222751481
 40
7.013619222751481
 10
1349.962125337193
 20
-282.7986571234338
 30
0.0
 10
1349.977397771436
 20
-283.1022539361938
 30
0.0
 10
1350.007677501908
 20
-283.7041766849173
 30
0.0
 10
1350.044682464919
 20
-284.5944458722254
 30
0.0
 10
1350.074582606375
 20
-285.4540761018434
 30
0.0
 10
1350.09631961206
 20
-286.2684231352661
 30
0.0
 10
1350.109790143907
 20
-287.0236595308313
 30
0.0
 10
1350.114434267776
 20
-287.706721097505
 30
0.0
 10
1350.111334511569
 20
-288.3065923912858
 30
0.0
 10
1350.09750030236
 20
-288.8112584960458
 30
0.0
 10
1350.082314072053
 20
-289.2172856538468
 30
0.0
 10
1350.044608617433
 20
-289.5054881645917
 30
0.0
 10
1350.033896789135
 20
-289.7006837346865
 30
0.0
 10
1349.978399907475
 20
-289.7690231795216
 30
0.0
 10
1349.962125337195
 20
-289.7890638667168
 30
0.0
 11
1349.962125337193
 21
-282.7986571234338
 31
0.0
 11
1350.006607061069
 21
-283.7095100011089
 31
0.0
 11
1350.044083778754
 21
-284.6048318016851
 31
0.0
 11
1350.073916472611
 21
-285.4693567645191
 31
0.0
 11
1350.095596473849
 21
-286.2883447956625
 31
0.0
 11
1350.108754126643
 21
-287.0478311626782
 31
0.0
 11
1350.113165081227
 21
-287.7348654956618
 31
0.0
 11
1350.108754126644
 21
-288.3377338013102
 31
0.0
 11
1350.095596473849
 21
-288.8461571968735
 31
0.0
 11
1350.073916472612
 21
-289.2514661610171
 31
0.0
 11
1350.044083778755
 21
-289.5467494146105
 31
0.0
 11
1350.006607061071
 21
-289.7269728424257
 31
0.0
 11
1349.962125337195
 21
-289.7890638667168
 31
0.0
  0
SPLINE
  5
278
330
1F
100
AcDbEntity
  8
0
  6
Continuous
 62
     2
100
AcDbSpline
210
0.0
220
0.0
230
1.0
 70
     8
 71
     3
 72
    13
 73
     9
 74
     7
 42
0.000000001
 43
0.0000000001
 44
0.00000001
 40
0.0
 40
0.0
 40
0.0
 40
0.0
 40
0.128160653055416
 40
0.2464871449060443
 40
0.3490126032537449
 40
0.4297806850986352
 40
0.4828907980757551
 40
0.5029568110487049
 40
0.5029568110487049
 40
0.5029568110487049
 40
0.5029568110487049
 10
1349.962125337193
 20
-137.4938008176715
 30
0.0
 10
1349.96008999422
 20
-137.4511230937559
 30
0.0
 10
1349.95617550061
 20
-137.369042438143
 30
0.0
 10
1349.94811524782
 20
-137.2530400210146
 30
0.0
 10
1349.940507576928
 20
-137.1526013710076
 30
0.0
 10
1349.930305912559
 20
-137.0748501585956
 30
0.0
 10
1349.926652751408
 20
-137.0228247272743
 30
0.0
 10
1349.916765709745
 20
-137.0004235403475
 30
0.0
 10
1349.914054537444
 20
-136.9942807899394
 30
0.0
 11
1349.962125337193
 21
-137.4938008176715
 31
0.0
 11
1349.955538639798
 21
-137.3658095374046
 31
0.0
 11
1349.947615399177
 21
-137.2477486169385
 31
0.0
 11
1349.938930491982
 21
-137.1455916691162
 31
0.0
 11
1349.930058794861
 21
-137.0653123067804
 31
0.0
 11
1349.921575184465
 21
-137.0128841427739
 31
0.0
 11
1349.914054537444
 21
-136.9942807899394
 31
0.0
  0
SPLINE
  5
279
330
1F
100
AcDbEntity
  8
0
  6
Continuous
 62
     2
100
AcDbSpline
210
0.0
220
0.0
230
1.0
 70
     8
 71
     3
 72
    11
 73
     7
 74
     5
 42
0.000000001
 43
0.0000000001
 44
0.00000001
 40
0.0
 40
0.0
 40
0.0
 40
0.0
 40
1.156591815835953
 40
2.466443787202016
 40
3.9061113204563
 40
5.407654630330449
 40
5.407654630330449
 40
5.407654630330449
 40
5.407654630330449
 10
1355.346432659389
 20
-282.2993423560567
 30
0.0
 10
1354.963298352466
 20
-282.342332760887
 30
0.0
 10
1354.146260552288
 20
-282.4340102201318
 30
0.0
 10
1352.849720897768
 20
-282.5541637558994
 30
0.0
 10
1351.438038216412
 20
-282.6769516734493
 30
0.0
 10
1350.460948147392
 20
-282.7575236338056
 30
0.0
 10
1349.962125337193
 20
-282.7986571234338
 30
0.0
 11
1355.346432659389
 21
-282.2993423560567
 31
0.0
 11
1354.196669358567
 21
-282.4248372993748
 31
0.0
 11
1352.892715419183
 21
-282.5489997397459
 31
0.0
 11
1351.45849476141
 21
-282.6741145386629
 31
0.0
 11
1349.962125337193
 21
-282.7986571234338
 31
0.0
  0
SPLINE
  5
27A
330
1F
100
AcDbEntity
  8
0
  6
Continuous
 62
     2
100
AcDbSpline
210
0.0
220
0.0
230
1.0
 70
     8
 71
     3
 72
    11
 73
     7
 74
     5
 42
0.000000001
 43
0.0000000001
 44
0.00000001
 40
0.0
 40
0.0
 40
0.0
 40
0.0
 40
0.191600659587972
 40
0.6340446322108817
 40
1.343450677195966
 40
2.280980348972858
 40
2.280980348972858
 40
2.280980348972858
 40
2.280980348972858
 10
1357.543437687252
 20
-281.8000275886798
 30
0.0
 10
1357.497204900395
 20
-281.8454949652044
 30
0.0
 10
1357.344211414182
 20
-281.9959555261798
 30
0.0
 10
1356.876203401727
 20
-282.0585881652513
 30
0.0
 10
1356.206262602303
 20
-282.1995518408405
 30
0.0
 10
1355.658340912962
 20
-282.263142771508
 30
0.0
 10
1355.346432659389
 20
-282.2993423560567
 30
0.0
 11
1357.543437687252
 21
-281.8000275886798
 31
0.0
 11
1357.398540322052
 21
-281.9253893373765
 31
0.0
 11
1356.973914291012
 21
-282.0496849723689
 31
0.0
 11
1356.27572606231
 21
-282.175343770803
 31
0.0
 11
1355.346432659389
 21
-282.2993423560567
 31
0.0
  0
SPLINE
  5
27B
330
1F
100
AcDbEntity
  8
0
  6
Continuous
 62
     7
100
AcDbSpline
210
0.0
220
0.0
230
1.0
 70
     8
 71
     3
 72
    47
 73
    43
 74
    41
 42
0.000000001
 43
0.0000000001
 44
0.00000001
 40
0.0
 40
0.0
 40
0.0
 40
0.0
 40
0.0345594354837254
 40
0.0690648970854425
 40
0.1914707901513455
 40
0.2971944289203648
 40
0.3924548832546692
 40
0.5270757173430171
 40
0.6429778664071759
 40
0.7580356807125116
 40
0.8295614600844409
 40
0.8734040921760656
 40
0.9310345894178624
 40
0.9884293169565234
 40
1.091496079361777
 40
1.216618571844993
 40
1.32106550072584
 40
1.441063856649703
 40
1.565453467255949
 40
1.660298672080054
 40
1.767124378100593
 40
1.872904853374538
 40
2.08733346851762
 40
2.302118867288347
 40
2.49190044181139
 40
2.711701367106968
 40
2.878292099357031
 40
3.083137220986427
 40
3.226120973671584
 40
3.41558621874121
 40
3.543701490087904
 40
3.667771241131957
 40
3.76491914439481
 40
3.915648794303999
 40
4.143889200496753
 40
4.32654463406012
 40
4.447217719947645
 40
4.610115903794739
 40
4.809024920635879
 40
4.915800371929877
 40
4.991139118194591
 40
5.027203587214228
 40
5.027203587214228
 40
5.027203587214228
 40
5.027203587214228
 10
927.6534446774436
 20
-134.172671928289
 30
0.0
 10
927.6634554395175
 20
-134.1783720021088
 30
0.0
 10
927.6834613221001
 20
-134.1897632599323
 30
0.0
 10
927.7388339935244
 20
-134.2215016558978
 30
0.0
 10
927.8145630373283
 20
-134.2654269030793
 30
0.0
 10
927.9074016025825
 20
-134.3202109782968
 30
0.0
 10
928.0033866155459
 20
-134.3776698827534
 30
0.0
 10
928.1018725779579
 20
-134.4375527042333
 30
0.0
 10
928.2055307349754
 20
-134.5016238820122
 30
0.0
 10
928.2909550216341
 20
-134.5551891115236
 30
0.0
 10
928.3558285311678
 20
-134.5963113185006
 30
0.0
 10
928.4044402999278
 20
-134.6273323418905
 30
0.0
 10
928.4490041797508
 20
-134.6559400806951
 30
0.0
 10
928.5100653376251
 20
-134.6953919397417
 30
0.0
 10
928.5898191063994
 20
-134.7473673081861
 30
0.0
 10
928.6823781585069
 20
-134.8084169917856
 30
0.0
 10
928.7793080573758
 20
-134.8730869618878
 30
0.0
 10
928.8757084142696
 20
-134.9381080268262
 30
0.0
 10
928.9691262499066
 20
-135.0018246115486
 30
0.0
 10
929.0586306100662
 20
-135.0634837889779
 30
0.0
 10
929.1427928920284
 20
-135.1219620208755
 30
0.0
 10
929.2593574628833
 20
-135.2036619027863
 30
0.0
 10
929.4047756882806
 20
-135.3068916370002
 30
0.0
 10
929.5721119190505
 20
-135.4276069144665
 30
0.0
 10
929.7400882636936
 20
-135.5504868683118
 30
0.0
 10
929.894366257687
 20
-135.6648768443987
 30
0.0
 10
930.0520138949458
 20
-135.7831459350212
 30
0.0
 10
930.1886408137075
 20
-135.8867629470319
 30
0.0
 10
930.3308459520426
 20
-135.9956386756575
 30
0.0
 10
930.4523480685771
 20
-136.0894803459045
 30
0.0
 10
930.5685144822032
 20
-136.1799137178742
 30
0.0
 10
930.6601879777431
 20
-136.2517140374577
 30
0.0
 10
930.7576079936274
 20
-136.328401755661
 30
0.0
 10
930.882039903414
 20
-136.4269125572887
 30
0.0
 10
931.0283551395365
 20
-136.5436993327054
 30
0.0
 10
931.1663826408294
 20
-136.6548060704277
 30
0.0
 10
931.2871630527035
 20
-136.7526020679816
 30
0.0
 10
931.4118825500135
 20
-136.8541420552223
 30
0.0
 10
931.53269090746
 20
-136.9531475769872
 30
0.0
 10
931.630699048336
 20
-137.0339274081201
 30
0.0
 10
931.6867506488953
 20
-137.0802666954668
 30
0.0
 10
931.7153243374104
 20
-137.1039839610322
 30
0.0
 10
931.7245744744347
 20
-137.1116619303268
 30
0.0
 11
927.6534446774436
 21
-134.172671928289
 31
0.0
 11
927.6834688094228
 21
-134.1897864288308
 31
0.0
 11
927.7134070344024
 21
-134.2069424669032
 31
0.0
 11
927.819290238784
 21
-134.2683586806643
 31
0.0
 11
927.9103456745312
 21
-134.3220838572581
 31
0.0
 11
927.9920824855
 21
-134.3710087764563
 31
0.0
 11
928.1071117212601
 21
-134.4409447739815
 31
0.0
 11
928.205704058243
 21
-134.5018780094638
 31
0.0
 11
928.303187025697
 21
-134.5629956963458
 31
0.0
 11
928.3635983087584
 21
-134.6012894815182
 31
0.0
 11
928.4005567831147
 21
-134.6248743825847
 31
0.0
 11
928.4490550037702
 21
-134.656006308309
 31
0.0
 11
928.497263483294
 21
-134.6871526924558
 31
0.0
 11
928.5836128460475
 21
-134.7434247552297
 31
0.0
 11
928.6880648884445
 21
-134.8123116839165
 31
0.0
 11
928.7749504084709
 21
-134.8702777718454
 31
0.0
 11
928.8744377308309
 21
-134.9373738082325
 31
0.0
 11
928.9772002634118
 21
-135.007464015178
 31
0.0
 11
929.0553080078345
 21
-135.0612672969617
 31
0.0
 11
929.1430371959644
 21
-135.1222207300614
 31
0.0
 11
929.2296603793749
 21
-135.1829326155196
 31
0.0
 11
929.4045204321291
 21
-135.3070438273743
 31
0.0
 11
929.5787229906942
 21
-135.432687116411
 31
0.0
 11
929.7319002573707
 21
-135.5447307283493
 31
0.0
 11
929.9084736012716
 21
-135.675628783911
 31
0.0
 11
930.0417355600023
 21
-135.7755973910189
 31
0.0
 11
930.204959219088
 21
-135.8993696049413
 31
0.0
 11
930.3184909923733
 21
-135.9862884749936
 31
0.0
 11
930.4684443427501
 21
-136.1020946569163
 31
0.0
 11
930.5695392765068
 21
-136.1807924148701
 31
0.0
 11
930.6672177447446
 21
-136.2572922184838
 31
0.0
 11
930.7435521388709
 21
-136.3173819461659
 31
0.0
 11
930.8617332030132
 21
-136.4109376163099
 31
0.0
 11
931.0401218944104
 21
-136.553314432319
 31
0.0
 11
931.1824108851885
 21
-136.6678432516737
 31
0.0
 11
931.2761953366519
 21
-136.7437805303649
 31
0.0
 11
931.4025239938996
 21
-136.8466245316373
 31
0.0
 11
931.5563677079259
 21
-136.9727074746281
 31
0.0
 11
931.638765479819
 21
-137.0406162675667
 31
0.0
 11
931.6968191908339
 21
-137.0886339155138
 31
0.0
 11
931.7245744744347
 21
-137.1116619303268
 31
0.0
  0
SPLINE
  5
27C
330
1F
100
AcDbEntity
  8
0
  6
Continuous
 62
     7
100
AcDbSpline
210
0.0
220
0.0
230
1.0
 70
     8
 71
     3
 72
    17
 73
    13
 74
    11
 42
0.000000001
 43
0.0000000001
 44
0.00000001
 40
0.0
 40
0.0
 40
0.0
 40
0.0
 40
0.0278016549063631
 40
0.0558629734165875
 40
0.0688986656230655
 40
0.0810184936596271
 40
0.0870796766565824
 40
0.0931824724272965
 40
0.1005833145410859
 40
0.1069869994759927
 40
0.1565536053489492
 40
0.2041856349815537
 40
0.2041856349815537
 40
0.2041856349815537
 40
0.2041856349815537
 10
927.4744606993391
 20
-134.0777464611695
 30
0.0
 10
927.4829196514629
 20
-134.0815321939001
 30
0.0
 10
927.4999165550481
 20
-134.0891390310787
 30
0.0
 10
927.5206587919993
 20
-134.0990035596896
 30
0.0
 10
927.5365776873193
 20
-134.1068305510623
 30
0.0
 10
927.5458726437663
 20
-134.1115085202723
 30
0.0
 10
927.5530784834027
 20
-134.1151961717409
 30
0.0
 10
927.5588701566871
 20
-134.1181942076196
 30
0.0
 10
927.5647472198117
 20
-134.1212754501189
 30
0.0
 10
927.5834004531907
 20
-134.1311888467457
 30
0.0
 10
927.6133855925832
 20
-134.1483452508585
 30
0.0
 10
927.6410788360225
 20
-134.1651614786614
 30
0.0
 10
927.654649860082
 20
-134.1734022494697
 30
0.0
 11
927.4744606993391
 21
-134.0777464611695
 31
0.0
 11
927.4997931900206
 21
-134.0892005848131
 31
0.0
 11
927.5251455069453
 21
-134.1012296178578
 31
0.0
 11
927.5368423563292
 21
-134.1069840064281
 31
0.0
 11
927.5476683924459
 21
-134.1124326003012
 31
0.0
 11
927.5530639973857
 21
-134.1151940106318
 31
0.0
 11
927.558483690853
 21
-134.1179995478867
 31
0.0
 11
927.5650381462426
 21
-134.1214363456735
 31
0.0
 11
927.570691885444
 21
-134.1244434063885
 31
0.0
 11
927.613831478998
 21
-134.1488529109238
 31
0.0
 11
927.654649860082
 21
-134.1734022494697
 31
0.0
  0
SPLINE
  5
27D
330
1F
100
AcDbEntity
  8
0
  6
Continuous
 62
     7
100
AcDbSpline
210
0.0
220
0.0
230
1.0
 70
     8
 71
     3
 72
    11
 73
     7
 74
     5
 42
0.000000001
 43
0.0000000001
 44
0.00000001
 40
0.0
 40
0.0
 40
0.0
 40
0.0
 40
0.0267595641341319
 40
0.053827910733351
 40
0.0771907099205635
 40
0.1011539095153472
 40
0.1011539095153472
 40
0.1011539095153472
 40
0.1011539095153472
 10
927.3805543136915
 20
-134.0401951703859
 30
0.0
 10
927.3889251383724
 20
-134.0432769030687
 30
0.0
 10
927.4057633745832
 20
-134.0494759431795
 30
0.0
 10
927.4297166783251
 20
-134.0588762963214
 30
0.0
 10
927.4526704123789
 20
-134.0682649109335
 30
0.0
 10
927.4671360994329
 20
-134.0745593218601
 30
0.0
 10
927.4744606993391
 20
-134.0777464611695
 30
0.0
 11
927.3805543136915
 21
-134.0401951703859
 31
0.0
 11
927.4056334913624
 21
-134.0495283971879
 31
0.0
 11
927.4308408191388
 21
-134.0593917649473
 31
0.0
 11
927.4524519417386
 21
-134.0682675620333
 31
0.0
 11
927.4744606993391
 21
-134.0777464611695
 31
0.0
  0
SPLINE
  5
27E
330
1F
100
AcDbEntity
  8
0
  6
Continuous
 62
     7
100
AcDbSpline
210
0.0
220
0.0
230
1.0
 70
     8
 71
     3
 72
    25
 73
    21
 74
    19
 42
0.000000001
 43
0.0000000001
 44
0.00000001
 40
0.0
 40
0.0
 40
0.0
 40
0.0
 40
0.0949632972666846
 40
0.1931865991228485
 40
0.2886138893840511
 40
0.3860842996034235
 40
0.576494214663722
 40
0.7698157893192676
 40
0.9697851895397316
 40
1.148875157359345
 40
1.331259527615366
 40
1.520880982603428
 40
1.888849590241992
 40
2.234285411282875
 40
2.413219380648783
 40
2.571809341745975
 40
2.661518474888948
 40
2.735401648011759
 40
2.809955777193397
 40
2.895751206556389
 40
2.895751206556389
 40
2.895751206556389
 40
2.895751206556389
 10
923.9239655763894
 20
-134.9231589405124
 30
0.0
 10
923.9520920362669
 20
-134.9086363600942
 30
0.0
 10
924.0093105064836
 20
-134.8790926412657
 30
0.0
 10
924.09481198468
 20
-134.8349924179702
 30
0.0
 10
924.181110065651
 20
-134.7906136428189
 30
0.0
 10
924.2948324014015
 20
-134.7323709681352
 30
0.0
 10
924.4378474000735
 20
-134.6597393502067
 30
0.0
 10
924.6119287666803
 20
-134.5728326472403
 30
0.0
 10
924.783457827825
 20
-134.4892763466665
 30
0.0
 10
924.9527069630144
 20
-134.4093958808084
 30
0.0
 10
925.1199668554747
 20
-134.3334177290707
 30
0.0
 10
925.3463969992599
 20
-134.2355635737768
 30
0.0
 10
925.6266919149703
 20
-134.1254669779769
 30
0.0
 10
925.9101677675764
 20
-134.0343419025696
 30
0.0
 10
926.1312439936814
 20
-133.9796065499667
 30
0.0
 10
926.2712240449509
 20
-133.9529659173161
 30
0.0
 10
926.3775981920548
 20
-133.9380077235435
 30
0.0
 10
926.4565700233293
 20
-133.9298511905523
 30
0.0
 10
926.5344852670133
 20
-133.9243485261154
 30
0.0
 10
926.5879397430916
 20
-133.9235735621468
 30
0.0
 10
926.616540693493
 20
-133.9231589245137
 30
0.0
 11
923.9239655763894
 21
-134.9231589405124
 31
0.0
 11
924.0083480424355
 21
-134.8795971891844
 31
0.0
 11
924.095649517763
 21
-134.834583086654
 31
0.0
 11
924.1805163654913
 21
-134.7909483999824
 31
0.0
 11
924.2672755267014
 21
-134.7465262342268
 31
0.0
 11
924.4370796953748
 21
-134.6603724180928
 31
0.0
 11
924.6100828909381
 21
-134.574098867532
 31
0.0
 11
924.7899023608451
 21
-134.4866190456667
 31
0.0
 11
924.9518958166274
 21
-134.4102558554152
 31
0.0
 11
925.1179932913469
 21
-134.3349186974782
 31
0.0
 11
925.2921068620495
 21
-134.2598137000589
 31
0.0
 11
925.6350681301592
 21
-134.1264777914721
 31
0.0
 11
925.9644328566875
 21
-134.0223395037417
 31
0.0
 11
926.1382031700819
 21
-133.9796634757842
 31
0.0
 11
926.2940480740705
 21
-133.9502842093639
 31
0.0
 11
926.3828943803192
 21
-133.9378720328528
 31
0.0
 11
926.456385391653
 21
-133.930269784302
 31
0.0
 11
926.5307709767544
 21
-133.9252594032762
 31
0.0
 11
926.616540693493
 21
-133.9231589245137
 31
0.0
  0
SPLINE
  5
27F
330
1F
100
AcDbEntity
  8
0
  6
Continuous
 62
     7
100
AcDbSpline
210
0.0
220
0.0
230
1.0
 70
     8
 71
     3
 72
    15
 73
    11
 74
     9
 42
0.000000001
 43
0.0000000001
 44
0.00000001
 40
0.0
 40
0.0
 40
0.0
 40
0.0
 40
1.371363724447635
 40
2.742051636260189
 40
4.112222344394981
 40
5.482113143115763
 40
6.852003941836337
 40
8.222174649970775
 40
9.59286256178338
 40
10.96422628623125
 40
10.96422628623125
 40
10.96422628623125
 40
10.96422628623125
 10
596.650160312858
 20
-290.5447152665864
 30
0.0
 10
596.1923063737955
 20
-290.5187330855212
 30
0.0
 10
595.2768241290494
 20
-290.4667815131048
 30
0.0
 10
593.9565425042048
 20
-290.0514653467247
 30
0.0
 10
592.7400331258872
 20
-289.4057929207511
 30
0.0
 10
591.6743804156742
 20
-288.5300884204878
 30
0.0
 10
590.798675915412
 20
-287.4644357102753
 30
0.0
 10
590.1530034894379
 20
-286.2479263319574
 30
0.0
 10
589.737687323058
 20
-284.9276447071134
 30
0.0
 10
589.6857357506415
 20
-284.0121624623671
 30
0.0
 10
589.6597535695762
 20
-283.5543085233044
 30
0.0
 11
596.650160312858
 21
-290.5447152665864
 31
0.0
 11
595.2853806881494
 21
-290.4104951285543
 31
0.0
 11
593.9736017566943
 21
-290.0129760824123
 31
0.0
 11
592.765059732022
 21
-289.3673802734759
 31
0.0
 11
591.706036287516
 21
-288.4984325486464
 31
0.0
 11
590.8370885626869
 21
-287.4394091041403
 31
0.0
 11
590.1914927537506
 21
-286.2308670794684
 31
0.0
 11
589.7939737076084
 21
-284.9190881480133
 31
0.0
 11
589.6597535695762
 21
-283.5543085233044
 31
0.0
  0
SPLINE
  5
280
330
1F
100
AcDbEntity
  8
0
  6
Continuous
 62
     7
100
AcDbSpline
210
0.0
220
0.0
230
1.0
 70
     8
 71
     3
 72
    23
 73
    19
 74
    17
 42
0.000000001
 43
0.0000000001
 44
0.00000001
 40
0.0
 40
0.0
 40
0.0
 40
0.0
 40
0.1032218767379738
 40
0.1951038245514861
 40
0.2415604055687697
 40
0.292544494180859
 40
0.3449604828792557
 40
0.3874388695195026
 40
0.4308389967814479
 40
0.4847394349617138
 40
0.5271360414612826
 40
0.5820275042006737
 40
0.6020970068399305
 40
0.6297313774004614
 40
0.6541438358629829
 40
0.6785331733229294
 40
0.7358316126377263
 40
0.7768041515813756
 40
0.7768041515813756
 40
0.7768041515813756
 40
0.7768041515813756
 10
926.616540693493
 20
-133.9231589245137
 30
0.0
 10
926.650949651258
 20
-133.9234564801799
 30
0.0
 10
926.7159874072822
 20
-133.9240189162791
 30
0.0
 10
926.7964327246416
 20
-133.9279566258419
 30
0.0
 10
926.8593792051047
 20
-133.9324815684444
 30
0.0
 10
926.909129891136
 20
-133.9370054858605
 30
0.0
 10
926.9574595022688
 20
-133.9424013524973
 30
0.0
 10
927.003163605832
 20
-133.9484356579092
 30
0.0
 10
927.0492353010828
 20
-133.9554041153299
 30
0.0
 10
927.0951153156124
 20
-133.9633985146388
 30
0.0
 10
927.1445504413925
 20
-133.9732091074204
 30
0.0
 10
927.1827301174636
 20
-133.9817597956193
 30
0.0
 10
927.2159450083841
 20
-133.9899044112896
 30
0.0
 10
927.2392176654871
 20
-133.9959286071107
 30
0.0
 10
927.2637909702446
 20
-134.0026642780751
 30
0.0
 10
927.2977604894077
 20
-134.0125074135784
 30
0.0
 10
927.3367969646512
 20
-134.0247095425718
 30
0.0
 10
927.3676786732404
 20
-134.035638504855
 30
0.0
 10
927.3805543136915
 20
-134.0401951703859
 30
0.0
 11
926.616540693493
 21
-133.9231589245137
 31
0.0
 11
926.7197497699417
 21
-133.9247843839306
 31
0.0
 11
926.8115274281041
 21
-133.9291608743758
 31
0.0
 11
926.8578629409669
 21
-133.9325126121545
 31
0.0
 11
926.9086372196895
 21
-133.937133207018
 31
0.0
 11
926.9607281888999
 21
-133.942961310946
 31
0.0
 11
927.0028404949927
 21
-133.9485261122268
 31
0.0
 11
927.0457515285894
 21
-133.9550233621595
 31
0.0
 11
927.0988497703098
 21
-133.9642880261943
 31
0.0
 11
927.140434446581
 21
-133.9725455666548
 31
0.0
 11
927.1939951120645
 21
-133.9845592200338
 31
0.0
 11
927.2134871549807
 21
-133.989338886378
 31
0.0
 11
927.2402394787788
 21
-133.9962650419932
 31
0.0
 11
927.2637822412293
 21
-134.0027230978238
 31
0.0
 11
927.2872102167959
 21
-134.0095031984567
 31
0.0
 11
927.3418590917938
 21
-134.0267256186507
 31
0.0
 11
927.3805543136915
 21
-134.0401951703859
 31
0.0
  0
SPLINE
  5
281
330
1F
100
AcDbEntity
  8
0
  6
Continuous
 62
     2
100
AcDbSpline
210
0.0
220
0.0
230
1.0
 70
     8
 71
     3
 72
    15
 73
    11
 74
     9
 42
0.000000001
 43
0.0000000001
 44
0.00000001
 40
0.0
 40
0.0
 40
0.0
 40
0.0
 40
0.2569768690846472
 40
0.7717995057747749
 40
1.55026301491241
 40
2.548052091820219
 40
3.754691461486794
 40
5.102702901969935
 40
6.565877716643101
 40
8.077659805172374
 40
8.077659805172374
 40
8.077659805172374
 40
8.077659805172374
 10
597.4058117127641
 20
-289.7890638666773
 30
0.0
 10
597.4511821923641
 20
-289.7157553204088
 30
0.0
 10
597.5874470562491
 20
-289.4955818178555
 30
0.0
 10
597.667944724097
 20
-288.9745024401424
 30
0.0
 10
597.8004807448203
 20
-288.2273916381976
 30
0.0
 10
597.914758560898
 20
-287.2372439734239
 30
0.0
 10
598.0380288294682
 20
-286.0603519328047
 30
0.0
 10
598.1594969314623
 20
-284.7262970431789
 30
0.0
 10
598.2819547864767
 20
-283.2906014287092
 30
0.0
 10
598.363170101743
 20
-282.3022682662105
 30
0.0
 10
598.404441247517
 20
-281.8000275886403
 30
0.0
 11
597.4058117127641
 21
-289.7890638666773
 31
0.0
 11
597.5312595333011
 21
-289.5647873512696
 31
0.0
 11
597.6554690964523
 21
-289.0651731690983
 31
0.0
 11
597.7811272996628
 21
-288.2969183606768
 31
0.0
 11
597.9051264801402
 21
-287.3068641980242
 31
0.0
 11
598.0305767996267
 21
-286.1067638748918
 31
0.0
 11
598.1547838638286
 21
-284.7644869106474
 31
0.0
 11
598.2798383697651
 21
-283.3066659652839
 31
0.0
 11
598.404441247517
 21
-281.8000275886403
 31
0.0
  0
SPLINE
  5
282
330
1F
100
AcDbEntity
  8
0
  6
Continuous
 62
     7
100
AcDbSpline
210
0.0
220
0.0
230
1.0
 70
     8
 71
     3
 72
    15
 73
    11
 74
     9
 42
0.000000001
 43
0.0000000001
 44
0.00000001
 40
0.0
 40
0.0
 40
0.0
 40
0.0
 40
1.371363724447861
 40
2.742051636260465
 40
4.112222344395059
 40
5.482113143115589
 40
6.852003941836459
 40
8.222174649971251
 40
9.592862561783805
 40
10.96422628623155
 40
10.96422628623155
 40
10.96422628623155
 40
10.96422628623155
 10
932.6686532543405
 20
-283.5543085233044
 30
0.0
 10
932.6426710732751
 20
-284.0121624623671
 30
0.0
 10
932.5907195008588
 20
-284.9276447071134
 30
0.0
 10
932.175403334479
 20
-286.2479263319576
 30
0.0
 10
931.5297309085045
 20
-287.4644357102753
 30
0.0
 10
930.654026408242
 20
-288.530088420488
 30
0.0
 10
929.5883736980297
 20
-289.405792920751
 30
0.0
 10
928.3718643197113
 20
-290.051465346725
 30
0.0
 10
927.0515826948673
 20
-290.4667815131047
 30
0.0
 10
926.1361004501209
 20
-290.518733085521
 30
0.0
 10
925.6782465110583
 20
-290.5447152665864
 30
0.0
 11
932.6686532543405
 21
-283.5543085233044
 31
0.0
 11
932.5344331163084
 21
-284.9190881480133
 31
0.0
 11
932.1369140701662
 21
-286.2308670794684
 31
0.0
 11
931.4913182612297
 21
-287.4394091041404
 31
0.0
 11
930.6223705364006
 21
-288.4984325486464
 31
0.0
 11
929.5633470918945
 21
-289.3673802734759
 31
0.0
 11
928.3548050672222
 21
-290.0129760824123
 31
0.0
 11
927.043026135767
 21
-290.4104951285543
 31
0.0
 11
925.6782465110583
 21
-290.5447152665864
 31
0.0
  0
SPLINE
  5
283
330
1F
100
AcDbEntity
  8
0
  6
Continuous
 62
     7
100
AcDbSpline
210
0.0
220
0.0
230
1.0
 70
     8
 71
     3
 72
     9
 73
     5
 74
     3
 42
0.000000001
 43
0.0000000001
 44
0.00000001
 40
0.0
 40
0.0
 40
0.0
 40
0.0
 40
0.2795425745637973
 40
0.556788296592536
 40
0.556788296592536
 40
0.556788296592536
 40
0.556788296592536
 10
932.3763430052692
 20
-137.4227809312754
 30
0.0
 10
932.4565233258091
 20
-137.4778319228481
 30
0.0
 10
932.6162251536741
 20
-137.5874815935405
 30
0.0
 10
932.6512253538156
 20
-137.7779346040634
 30
0.0
 10
932.66865325434
 20
-137.8727682866956
 30
0.0
 11
932.3763430052692
 21
-137.4227809312754
 31
0.0
 11
932.585450815179
 21
-137.6083017557684
 31
0.0
 11
932.66865325434
 21
-137.8727682866956
 31
0.0
  0
SPLINE
  5
284
330
1F
100
AcDbEntity
  8
0
  6
Continuous
 62
     2
100
AcDbSpline
210
0.0
220
0.0
230
1.0
 70
     8
 71
     3
 72
    11
 73
     7
 74
     5
 42
0.000000001
 43
0.0000000001
 44
0.00000001
 40
0.0
 40
0.0
 40
0.0
 40
0.0
 40
0.256976867024397
 40
0.7717994999721675
 40
1.550263008545488
 40
2.548052088948157
 40
2.548052088948157
 40
2.548052088948157
 40
2.548052088948157
 10
931.9130018544275
 20
-282.7986571233953
 30
0.0
 10
931.839693097501
 20
-282.7532854726119
 30
0.0
 10
931.6195189426101
 20
-282.6170171279579
 30
0.0
 10
931.0984497961473
 20
-282.5365760162297
 30
0.0
 10
930.3512688212904
 20
-282.4036508433473
 30
0.0
 10
929.7618828499944
 20
-282.3368608535564
 30
0.0
 10
929.4308021857684
 20
-282.2993423560184
 30
0.0
 11
931.9130018544275
 21
-282.7986571233953
 31
0.0
 11
931.6887253381522
 21
-282.6732093025645
 31
0.0
 11
931.1891111568522
 21
-282.5489997397063
 31
0.0
 11
930.4208563489738
 21
-282.4233415365726
 31
0.0
 11
929.4308021857684
 21
-282.2993423560184
 31
0.0
  0
SPLINE
  5
285
330
1F
100
AcDbEntity
  8
0
  6
Continuous
 62
     2
100
AcDbSpline
210
0.0
220
0.0
230
1.0
 70
     8
 71
     3
 72
    15
 73
    11
 74
     9
 42
0.000000001
 43
0.0000000001
 44
0.00000001
 40
0.0
 40
0.0
 40
0.0
 40
0.0
 40
0.2569768699781753
 40
0.771799505765486
 40
1.550263018280341
 40
2.548052091812106
 40
3.754691456670556
 40
5.102702901960769
 40
6.56587772950503
 40
8.077659805163629
 40
8.077659805163629
 40
8.077659805163629
 40
8.077659805163629
 10
924.9225951111454
 20
-289.7890638666773
 30
0.0
 10
924.8772246314248
 20
-289.7157553201302
 30
0.0
 10
924.7409597676537
 20
-289.4955818175082
 30
0.0
 10
924.6604620995563
 20
-288.9745024387408
 30
0.0
 10
924.5279260789773
 20
-288.2273916370636
 30
0.0
 10
924.4136482630583
 20
-287.2372439739051
 30
0.0
 10
924.2903779945935
 20
-286.0603519343991
 30
0.0
 10
924.1689098922011
 20
-284.7262970405019
 30
0.0
 10
924.0464520370604
 20
-283.2906014244348
 30
0.0
 10
923.965236721806
 20
-282.3022682619351
 30
0.0
 10
923.9239655763898
 20
-281.8000275886403
 30
0.0
 11
924.9225951111454
 21
-289.7890638666773
 31
0.0
 11
924.7971472903048
 21
-289.5647873504156
 31
0.0
 11
924.6729377274606
 21
-289.0651731690983
 31
0.0
 11
924.5472795237768
 21
-288.2969183573322
 31
0.0
 11
924.4232803437604
 21
-287.3068641980242
 31
0.0
 11
924.2978300247494
 21
-286.1067638796765
 31
0.0
 11
924.173622960083
 21
-284.7644869106474
 31
0.0
 11
924.0485684530569
 21
-283.306665952459
 31
0.0
 11
923.9239655763898
 21
-281.8000275886403
 31
0.0
  0
SPLINE
  5
286
330
1F
100
AcDbEntity
  8
0
  6
Continuous
 62
     2
100
AcDbSpline
210
0.0
220
0.0
230
1.0
 70
     8
 71
     3
 72
    11
 73
     7
 74
     5
 42
0.000000001
 43
0.0000000001
 44
0.00000001
 40
0.0
 40
0.0
 40
0.0
 40
0.0
 40
1.206639369929287
 40
2.554650809689491
 40
4.01782562273712
 40
5.529607710297478
 40
5.529607710297478
 40
5.529607710297478
 40
5.529607710297478
 10
929.4308021857684
 20
-282.2993423560184
 30
0.0
 10
929.0308735690087
 20
-282.2564754340012
 30
0.0
 10
928.1841599675665
 20
-282.1657192385588
 30
0.0
 10
926.8502747045013
 20
-282.0451920010445
 30
0.0
 10
925.414528760037
 20
-281.9224549893449
 30
0.0
 10
924.4262026642247
 20
-281.8412788246459
 30
0.0
 10
923.9239655763898
 20
-281.8000275886403
 30
0.0
 11
929.4308021857684
 21
-282.2993423560184
 31
0.0
 11
928.2307018622025
 21
-282.1738920364883
 31
0.0
 11
926.8884248983996
 21
-282.0496849723293
 31
0.0
 11
925.4306039540198
 21
-281.9246304664761
 31
0.0
 11
923.9239655763898
 21
-281.8000275886403
 31
0.0
  0
SPLINE
  5
287
330
1F
100
AcDbEntity
  8
0
  6
Continuous
 62
     2
100
AcDbSpline
210
0.0
220
0.0
230
1.0
 70
     8
 71
     3
 72
    15
 73
    11
 74
     9
 42
0.000000001
 43
0.0000000001
 44
0.00000001
 40
0.0
 40
0.0
 40
0.0
 40
0.0
 40
0.2569768691410887
 40
0.7717995057733045
 40
1.550263014875202
 40
2.548052091817904
 40
3.754691461470783
 40
5.102702901967866
 40
6.565877716702452
 40
8.077659805169905
 40
8.077659805169905
 40
8.077659805169905
 40
8.077659805169905
 10
590.4154049694822
 20
-282.7986571233953
 30
0.0
 10
590.4887135157683
 20
-282.7532866437878
 30
0.0
 10
590.7088870183263
 20
-282.6170217799111
 30
0.0
 10
591.2299663960212
 20
-282.5365241120577
 30
0.0
 10
591.9770771979495
 20
-282.4039880913404
 30
0.0
 10
592.9672248627172
 20
-282.2897102752623
 30
0.0
 10
594.1441169033484
 20
-282.1664400066901
 30
0.0
 10
595.4781717929945
 20
-282.0449719046942
 30
0.0
 10
596.9138674074688
 20
-281.922514049679
 30
0.0
 10
597.9022005699672
 20
-281.8412987344125
 30
0.0
 10
598.404441247517
 20
-281.8000275886403
 30
0.0
 11
590.4154049694822
 21
-282.7986571233953
 31
0.0
 11
590.639681484944
 21
-282.6732093028395
 31
0.0
 11
591.1392956670601
 21
-282.5489997397063
 31
0.0
 11
591.9075504754462
 21
-282.4233415365007
 31
0.0
 11
592.8976046381334
 21
-282.2993423560184
 31
0.0
 11
594.097704961252
 21
-282.1738920365326
 31
0.0
 11
595.4399819255103
 21
-282.0496849723293
 31
0.0
 11
596.897802870935
 21
-281.9246304663872
 31
0.0
 11
598.404441247517
 21
-281.8000275886403
 31
0.0
  0
SPLINE
  5
288
330
1F
100
AcDbEntity
  8
0
  6
Continuous
 62
     7
100
AcDbSpline
210
0.0
220
0.0
230
1.0
 70
     8
 71
     3
 72
    47
 73
    43
 74
    41
 42
0.000000001
 43
0.0000000001
 44
0.00000001
 40
0.0
 40
0.0
 40
0.0
 40
0.0
 40
0.036064466919488
 40
0.111403213642273
 40
0.2181786677210543
 40
0.4170876847393877
 40
0.5799858695645711
 40
0.7006589576128947
 40
0.8833143881603354
 40
1.111554793934399
 40
1.262284442372758
 40
1.359432344657908
 40
1.483502095495877
 40
1.611617370674391
 40
1.801082614525127
 40
1.944066368773412
 40
2.148911490685462
 40
2.315502223159839
 40
2.535303146606799
 40
2.725084723684561
 40
2.939870121524959
 40
3.154298744055035
 40
3.260079224510163
 40
3.366904929027148
 40
3.461750136685435
 40
3.586139749182621
 40
3.706138114263511
 40
3.810585038925241
 40
3.935707529737862
 40
4.038774298053393
 40
4.096169426652438
 40
4.153799524399899
 40
4.197642168456123
 40
4.269167936871254
 40
4.384225742113393
 40
4.500127900142013
 40
4.634748732249879
 40
4.730009184725066
 40
4.835732804299596
 40
4.958138709947519
 40
4.992644325996508
 40
5.027203572930155
 40
5.027203572930155
 40
5.027203572930155
 40
5.027203572930155
 10
590.6038323494778
 20
-137.1116619303245
 30
0.0
 10
590.6130824859631
 20
-137.1039839614768
 30
0.0
 10
590.6416561740565
 20
-137.0802666962603
 30
0.0
 10
590.6977077749074
 20
-137.0339274086683
 30
0.0
 10
590.795715916663
 20
-136.9531475768105
 30
0.0
 10
590.9165242751267
 20
-136.854142054215
 30
0.0
 10
591.0412437732979
 20
-136.7526020662808
 30
0.0
 10
591.1620241852099
 20
-136.6548060687087
 30
0.0
 10
591.3000516861781
 20
-136.5436993312602
 30
0.0
 10
591.4463669210261
 20
-136.4269125568675
 30
0.0
 10
591.5707988300637
 20
-136.328401755834
 30
0.0
 10
591.668218845251
 20
-136.2517140381758
 30
0.0
 10
591.7598923414832
 20
-136.1799137180448
 30
0.0
 10
591.876058755743
 20
-136.0894803455829
 30
0.0
 10
591.9975608733828
 20
-135.9956386744897
 30
0.0
 10
592.1397660118889
 20
-135.886762945744
 30
0.0
 10
592.276392931208
 20
-135.7831459333258
 30
0.0
 10
592.4340405681188
 20
-135.6648768429852
 30
0.0
 10
592.5883185623691
 20
-135.5504868667234
 30
0.0
 10
592.7562949069611
 20
-135.4276069129353
 30
0.0
 10
592.9236311401808
 20
-135.3068916337309
 30
0.0
 10
593.069049368766
 20
-135.2036618973048
 30
0.0
 10
593.1856139426808
 20
-135.1219620133343
 30
0.0
 10
593.2697762264581
 20
-135.0634837802452
 30
0.0
 10
593.3592805875419
 20
-135.0018246022641
 30
0.0
 10
593.4526984270486
 20
-134.9381080150033
 30
0.0
 10
593.5490987858957
 20
-134.8730869488894
 30
0.0
 10
593.646028685746
 20
-134.8084169782963
 30
0.0
 10
593.7385877379248
 20
-134.7473672947926
 30
0.0
 10
593.8183416199478
 20
-134.6953918526804
 30
0.0
 10
593.8794027803601
 20
-134.6559399929677
 30
0.0
 10
593.9239666643246
 20
-134.6273322522671
 30
0.0
 10
593.9725783211721
 20
-134.5963113004261
 30
0.0
 10
594.0374518285121
 20
-134.5551890950034
 30
0.0
 10
594.1228761121251
 20
-134.5016238675719
 30
0.0
 10
594.2265342686474
 20
-134.4375526903099
 30
0.0
 10
594.3250202326227
 20
-134.3776698681125
 30
0.0
 10
594.4210052390947
 20
-134.3202109677606
 30
0.0
 10
594.5138438019777
 20
-134.2654268940821
 30
0.0
 10
594.5895728884435
 20
-134.2215016222357
 30
0.0
 10
594.6449455538541
 20
-134.1897632302024
 30
0.0
 10
594.6649514265819
 20
-134.1783719780459
 30
0.0
 10
594.6749621340508
 20
-134.1726719353458
 30
0.0
 11
590.6038323494778
 21
-137.1116619303245
 31
0.0
 11
590.6315876314615
 21
-137.0886339168515
 31
0.0
 11
590.6896413428271
 21
-137.0406162686097
 31
0.0
 11
590.772039116869
 21
-136.9727074738998
 31
0.0
 11
590.9258828310349
 21
-136.8466245307998
 31
0.0
 11
591.0522114890446
 21
-136.7437805289141
 31
0.0
 11
591.1459959421921
 21
-136.6678432488691
 31
0.0
 11
591.2882849306271
 21
-136.5533144314134
 31
0.0
 11
591.4666736217008
 21
-136.41093761567
 31
0.0
 11
591.5848546846904
 21
-136.3173819464396
 31
0.0
 11
591.6611890780472
 21
-136.2572922193606
 31
0.0
 11
591.75886754612
 21
-136.1807924158705
 31
0.0
 11
591.859962482901
 21
-136.1020946555636
 31
0.0
 11
592.0099158323175
 21
-135.9862884743917
 31
0.0
 11
592.1234476068481
 21
-135.8993696033947
 31
0.0
 11
592.2866712661679
 21
-135.7755973893132
 31
0.0
 11
592.4199332250865
 21
-135.675628782082
 31
0.0
 11
592.5965065675106
 21
-135.5447307276323
 31
0.0
 11
592.749683836258
 21
-135.432687114198
 31
0.0
 11
592.9238863940827
 21
-135.307043825725
 31
0.0
 11
593.0987464528904
 21
-135.1829326096365
 31
0.0
 11
593.1853696405733
 21
-135.1222207212469
 31
0.0
 11
593.2730988275032
 21
-135.061267289055
 31
0.0
 11
593.351206574294
 21
-135.007464005713
 31
0.0
 11
593.4539691084893
 21
-134.9373737977787
 31
0.0
 11
593.5534564385094
 21
-134.8702777563727
 31
0.0
 11
593.6403419550938
 21
-134.8123116708869
 31
0.0
 11
593.7447939961701
 21
-134.7434247432317
 31
0.0
 11
593.8311433639433
 21
-134.6871526773355
 31
0.0
 11
593.8793521806948
 21
-134.6560060761005
 31
0.0
 11
593.9278500655302
 21
-134.6248743667577
 31
0.0
 11
593.9648085500173
 21
-134.6012894593253
 31
0.0
 11
594.0252198238956
 21
-134.5629956801311
 31
0.0
 11
594.1227027837563
 21
-134.5018779981999
 31
0.0
 11
594.2212951284547
 21
-134.4409447581502
 31
0.0
 11
594.3363243626436
 21
-134.3710087618528
 31
0.0
 11
594.4180611720996
 21
-134.3220838437471
 31
0.0
 11
594.5091165913731
 21
-134.268358677005
 31
0.0
 11
594.6149998066934
 21
-134.2069424570261
 31
0.0
 11
594.6449381657886
 21
-134.1897863423573
 31
0.0
 11
594.6749621340508
 21
-134.1726719353458
 31
0.0
  0
SPLINE
  5
289
330
1F
100
AcDbEntity
  8
0
  6
Continuous
 62
     7
100
AcDbSpline
210
0.0
220
0.0
230
1.0
 70
     8
 71
     3
 72
    15
 73
    11
 74
     9
 42
0.000000001
 43
0.0000000001
 44
0.00000001
 40
0.0
 40
0.0
 40
0.0
 40
0.0
 40
0.0259683439189329
 40
0.05261869583704
 40
0.0655525600174018
 40
0.0785985022107762
 40
0.0933280942534023
 40
0.1030143797922762
 40
0.145992457929401
 40
0.2041844827298415
 40
0.2041844827298415
 40
0.2041844827298415
 40
0.2041844827298415
 10
594.6737569638245
 20
-134.17340224947
 30
0.0
 10
594.6811573333423
 20
-134.168911966703
 30
0.0
 10
594.6961524363877
 20
-134.1598134853738
 30
0.0
 10
594.7149112749851
 20
-134.1486067269673
 30
0.0
 10
594.7300805404379
 20
-134.1397935024984
 30
0.0
 10
594.7418804659601
 20
-134.1330922716829
 30
0.0
 10
594.7528135137547
 20
-134.1270577638176
 30
0.0
 10
594.7726288637564
 20
-134.1164742102792
 30
0.0
 10
594.8055681522002
 20
-134.0997024998073
 30
0.0
 10
594.8362806193409
 20
-134.085763834221
 30
0.0
 10
594.8539461245676
 20
-134.0777464611692
 30
0.0
 11
594.6737569638245
 21
-134.17340224947
 31
0.0
 11
594.695973301984
 21
-134.1599564615171
 31
0.0
 11
594.7188733899014
 21
-134.1463246151231
 31
0.0
 11
594.7300587514604
 21
-134.1398305770175
 31
0.0
 11
594.7414046214247
 21
-134.1333910239177
 31
0.0
 11
594.7543047232596
 21
-134.1262812941995
 31
0.0
 11
594.7628458620748
 21
-134.1217125880059
 31
0.0
 11
594.8011650929681
 21
-134.1022510421449
 31
0.0
 11
594.8539461245676
 21
-134.0777464611692
 31
0.0
  0
SPLINE
  5
28A
330
1F
100
AcDbEntity
  8
0
  6
Continuous
 62
     7
100
AcDbSpline
210
0.0
220
0.0
230
1.0
 70
     8
 71
     3
 72
    11
 73
     7
 74
     5
 42
0.000000001
 43
0.0000000001
 44
0.00000001
 40
0.0
 40
0.0
 40
0.0
 40
0.0
 40
0.0239631984895174
 40
0.0473259987867143
 40
0.0754352696776976
 40
0.1011539029221974
 40
0.1011539029221974
 40
0.1011539029221974
 40
0.1011539029221974
 10
594.8539461245676
 20
-134.0777464611692
 30
0.0
 10
594.861270729655
 20
-134.0745593340075
 30
0.0
 10
594.8757364276127
 20
-134.0682649467917
 30
0.0
 10
594.8990112442989
 20
-134.0587447807287
 30
0.0
 10
594.9229677461187
 20
-134.0493522891997
 30
0.0
 10
594.9398068770298
 20
-134.0431558046727
 30
0.0
 10
594.9478525102155
 20
-134.0401951703859
 30
0.0
 11
594.8539461245676
 21
-134.0777464611692
 31
0.0
 11
594.8759548811453
 21
-134.0682675624632
 31
0.0
 11
594.8975660047664
 21
-134.0593917649478
 31
0.0
 11
594.9237460623931
 21
-134.0491577186737
 31
0.0
 11
594.9478525102155
 21
-134.0401951703859
 31
0.0
  0
SPLINE
  5
28B
330
1F
100
AcDbEntity
  8
0
  6
Continuous
 62
     7
100
AcDbSpline
210
0.0
220
0.0
230
1.0
 70
     8
 71
     3
 72
    25
 73
    21
 74
    19
 42
0.000000001
 43
0.0000000001
 44
0.00000001
 40
0.0
 40
0.0
 40
0.0
 40
0.0
 40
0.0857954293338702
 40
0.1603495585432727
 40
0.23423273176626
 40
0.3239418648095402
 40
0.4825318279232978
 40
0.6614657952723612
 40
1.006901616504986
 40
1.374870223951472
 40
1.564491678799624
 40
1.746876049195254
 40
1.925966017660082
 40
2.125935417235226
 40
2.31925699181339
 40
2.50966690695107
 40
2.607137317166845
 40
2.702564607431929
 40
2.800787909282985
 40
2.895751206554686
 40
2.895751206554686
 40
2.895751206554686
 40
2.895751206554686
 10
595.7118661304149
 20
-133.9231589245135
 30
0.0
 10
595.7404670808065
 20
-133.9235735621465
 30
0.0
 10
595.7939215568846
 20
-133.9243485261151
 30
0.0
 10
595.8718368006013
 20
-133.9298511905536
 30
0.0
 10
595.9508086318851
 20
-133.9380077235476
 30
0.0
 10
596.0571827796545
 20
-133.9529659174163
 30
0.0
 10
596.1971628308829
 20
-133.9796065501154
 30
0.0
 10
596.4182390570327
 20
-134.0343419027907
 30
0.0
 10
596.701714908997
 20
-134.1254669779995
 30
0.0
 10
596.9820098246621
 20
-134.2355635737847
 30
0.0
 10
597.2084399683891
 20
-134.3334177290519
 30
0.0
 10
597.3756998610453
 20
-134.4093958808771
 30
0.0
 10
597.5449489962753
 20
-134.4892763467598
 30
0.0
 10
597.7164780573949
 20
-134.5728326473248
 30
0.0
 10
597.8905594238101
 20
-134.6597393501949
 30
0.0
 10
598.0335744224801
 20
-134.7323709681229
 30
0.0
 10
598.1472967582545
 20
-134.790613642818
 30
0.0
 10
598.2335948392235
 20
-134.834992417969
 30
0.0
 10
598.3190963174209
 20
-134.8790926412655
 30
0.0
 10
598.3763147876376
 20
-134.9086363600935
 30
0.0
 10
598.4044412475168
 20
-134.9231589405124
 30
0.0
 11
595.7118661304149
 21
-133.9231589245135
 31
0.0
 11
595.7976358471244
 21
-133.9252594032749
 31
0.0
 11
595.8720214322535
 21
-133.930269784302
 31
0.0
 11
595.9455124436869
 21
-133.9378720328647
 31
0.0
 11
596.0343587498365
 21
-133.9502842093641
 31
0.0
 11
596.1902036557966
 21
-133.9796634762122
 31
0.0
 11
596.3639739672193
 21
-134.0223395037417
 31
0.0
 11
596.6933386939284
 21
-134.1264777915364
 31
0.0
 11
597.036299961857
 21
-134.2598137000587
 31
0.0
 11
597.2104135324316
 21
-134.3349186974215
 31
0.0
 11
597.3765110072789
 21
-134.410255855415
 31
0.0
 11
597.538504463643
 21
-134.4866190459453
 31
0.0
 11
597.718323932968
 21
-134.5740988675318
 31
0.0
 11
597.8913271284622
 21
-134.6603724180578
 31
0.0
 11
598.0611312972047
 21
-134.7465262342266
 31
0.0
 11
598.1478904584117
 21
-134.7909483999805
 31
0.0
 11
598.2327573061432
 21
-134.8345830866542
 31
0.0
 11
598.3200587814661
 21
-134.8795971891824
 31
0.0
 11
598.4044412475168
 21
-134.9231589405124
 31
0.0
  0
SPLINE
  5
28C
330
1F
100
AcDbEntity
  8
0
  6
Continuous
 62
     7
100
AcDbSpline
210
0.0
220
0.0
230
1.0
 70
     8
 71
     3
 72
    23
 73
    19
 74
    17
 42
0.000000001
 43
0.0000000001
 44
0.00000001
 40
0.0
 40
0.0
 40
0.0
 40
0.0
 40
0.0514265485981372
 40
0.0983519505584745
 40
0.1223712093435729
 40
0.1464122903113746
 40
0.174813430644085
 40
0.1953866220721464
 40
0.250272176020234
 40
0.2924766020749975
 40
0.3462192510275541
 40
0.389785749848388
 40
0.4320928938359956
 40
0.484366690465849
 40
0.535417283994427
 40
0.5820089327828992
 40
0.6737345055566067
 40
0.7768043359498014
 40
0.7768043359498014
 40
0.7768043359498014
 40
0.7768043359498014
 10
594.9478525102155
 20
-134.0401951703859
 30
0.0
 10
594.9640238094106
 20
-134.0345038069098
 30
0.0
 10
594.9949510075553
 20
-134.0236192342695
 30
0.0
 10
595.0339271236776
 20
-134.011559083223
 30
0.0
 10
595.0643374867146
 20
-134.0027444031749
 30
0.0
 10
595.0889171029698
 20
-133.9960000361956
 30
0.0
 10
595.1124790492707
 20
-133.9898971673397
 30
0.0
 10
595.1461049722247
 20
-133.9816587431343
 30
0.0
 10
595.1843867282745
 20
-133.9730977331
 30
0.0
 10
595.2337079233415
 20
-133.9633226731654
 30
0.0
 10
595.279528837857
 20
-133.9553458971754
 30
0.0
 10
595.3255480108867
 20
-133.9483925770085
 30
0.0
 10
595.3712043486563
 20
-133.9423712356961
 30
0.0
 10
595.419452518362
 20
-133.9369879829639
 30
0.0
 10
595.4692231762505
 20
-133.9324650105731
 30
0.0
 10
595.5321851088029
 20
-133.9279446566833
 30
0.0
 10
595.6125729264959
 20
-133.9240163280887
 30
0.0
 10
595.6775078617849
 20
-133.9234556056007
 30
0.0
 10
595.7118661304149
 20
-133.9231589245135
 30
0.0
 11
594.9478525102155
 21
-134.0401951703859
 31
0.0
 11
594.996475392871
 21
-134.0234468786887
 31
0.0
 11
595.0412741043436
 21
-134.0094801725591
 31
0.0
 11
595.0643461873226
 21
-134.002801565045
 31
0.0
 11
595.0875291023641
 21
-133.9964355582758
 31
0.0
 11
595.1150226407337
 21
-133.9893130486619
 31
0.0
 11
595.1350048274829
 21
-133.984417292409
 31
0.0
 11
595.1885635007777
 21
-133.9724217675217
 31
0.0
 11
595.2299617499147
 21
-133.9642121037118
 31
0.0
 11
595.2829060028796
 21
-133.9549828873056
 31
0.0
 11
595.3259825203844
 21
-133.9484672539727
 31
0.0
 11
595.3679258596338
 21
-133.9429309433314
 31
0.0
 11
595.4198759443021
 21
-133.9371224562551
 31
0.0
 11
595.470716706666
 21
-133.9324986077653
 31
0.0
 11
595.5171872338236
 21
-133.9291412534869
 31
0.0
 11
595.6088090423065
 21
-133.9247795096448
 31
0.0
 11
595.7118661304149
 21
-133.9231589245135
 31
0.0
  0
SPLINE
  5
28D
330
1F
100
AcDbEntity
  8
0
  6
Continuous
 62
     7
100
AcDbSpline
210
0.0
220
0.0
230
1.0
 70
     8
 71
     3
 72
     9
 73
     5
 74
     3
 42
0.000000001
 43
0.0000000001
 44
0.00000001
 40
0.0
 40
0.0
 40
0.0
 40
0.0
 40
0.2795425745628525
 40
0.5567882965908182
 40
0.5567882965908182
 40
0.5567882965908182
 40
0.5567882965908182
 10
589.9520638186453
 20
-137.4227809312763
 30
0.0
 10
589.8718834981058
 20
-137.477831922849
 30
0.0
 10
589.7121816702418
 20
-137.5874815935415
 30
0.0
 10
589.6771814701
 20
-137.7779346040636
 30
0.0
 10
589.6597535695759
 20
-137.8727682866956
 30
0.0
 11
589.9520638186453
 21
-137.4227809312763
 31
0.0
 11
589.7429560087367
 21
-137.6083017557691
 31
0.0
 11
589.6597535695759
 21
-137.8727682866956
 31
0.0
  0
SPLINE
  5
28E
330
1F
100
AcDbEntity
  8
0
  6
Continuous
 62
     2
100
AcDbSpline
210
0.0
220
0.0
230
1.0
 70
     8
 71
     3
 72
     9
 73
     5
 74
     3
 42
0.000000001
 43
0.0000000001
 44
0.00000001
 40
0.0
 40
0.0
 40
0.0
 40
0.0
 40
0.3177519859672045
 40
0.6129713891150712
 40
0.6129713891150712
 40
0.6129713891150712
 40
0.6129713891150712
 10
708.747246544606
 20
-120.5402654242581
 30
0.0
 10
708.7787927986714
 20
-120.435814738096
 30
0.0
 10
708.8396482644141
 20
-120.2343202220924
 30
0.0
 10
708.7678454099861
 20
-120.0370084666298
 30
0.0
 10
708.7332636957028
 20
-119.9419791408428
 30
0.0
 11
708.747246544606
 21
-120.5402654242581
 31
0.0
 11
708.806237669313
 21
-120.2280373454953
 31
0.0
 11
708.7332636957028
 21
-119.9419791408428
 31
0.0
  0
SPLINE
  5
28F
330
1F
100
AcDbEntity
  8
0
  6
Continuous
 62
     7
100
AcDbSpline
210
0.0
220
0.0
230
1.0
 70
     8
 71
     3
 72
    11
 73
     7
 74
     5
 42
0.000000001
 43
0.0000000001
 44
0.00000001
 40
0.0
 40
0.0
 40
0.0
 40
0.0
 40
0.0168834897998913
 40
0.0336530144555235
 40
0.4055009028327615
 40
0.7418419184629805
 40
0.7418419184629805
 40
0.7418419184629805
 40
0.7418419184629805
 10
709.1713164361065
 20
-120.5402654243186
 30
0.0
 10
709.1677321667739
 20
-120.5359265667059
 30
0.0
 10
709.1605878332804
 20
-120.5272781300876
 30
0.0
 10
709.0748687893066
 20
-120.4227699484894
 30
0.0
 10
708.9266581908166
 20
-120.2315904935866
 30
0.0
 10
708.7955371565783
 20
-120.035234662331
 30
0.0
 10
708.7332636957028
 20
-119.9419791408428
 30
0.0
 11
709.1713164361065
 21
-120.5402654243186
 31
0.0
 11
709.160571284217
 21
-120.5272426001914
 31
0.0
 11
709.1499340083938
 21
-120.5142785990267
 31
0.0
 11
708.9231655076708
 21
-120.2195806185031
 31
0.0
 11
708.7332636957028
 21
-119.9419791408428
 31
0.0
  0
SPLINE
  5
290
330
1F
100
AcDbEntity
  8
0
  6
Continuous
 62
     2
100
AcDbSpline
210
0.0
220
0.0
230
1.0
 70
     8
 71
     3
 72
    32
 73
    28
 74
    26
 42
0.000000001
 43
0.0000000001
 44
0.00000001
 40
0.0
 40
0.0
 40
0.0
 40
0.0
 40
0.437146664927981
 40
0.9269702935474754
 40
1.033826343640871
 40
1.153810987749124
 40
1.27319105218295
 40
1.373890784308589
 40
1.569904838561143
 40
1.790945237230878
 40
2.53011402327636
 40
3.27052964336179
 40
3.704304963115787
 40
4.090991311515908
 40
4.491796904932109
 40
4.852409045002185
 40
5.312487507868422
 40
5.722738446852021
 40
6.113885361222188
 40
6.5397060870725
 40
6.98632995326239
 40
7.490255039190087
 40
8.047589685561285
 40
8.088953839163821
 40
8.130211670304373
 40
8.171496467577064
 40
8.212821691879368
 40
8.212821691879368
 40
8.212821691879368
 40
8.212821691879368
 10
924.4514574851061
 20
-122.9485893521536
 30
0.0
 10
924.5971884119929
 20
-122.9511871451977
 30
0.0
 10
924.906211105538
 20
-122.9566957854906
 30
0.0
 10
925.2496166219839
 20
-122.9902403217741
 30
0.0
 10
925.4863754439007
 20
-123.0220034435572
 30
0.0
 10
925.6005083658556
 20
-123.0391549565847
 30
0.0
 10
925.7123230082351
 20
-123.0578055487268
 30
0.0
 10
925.8487778380348
 20
-123.0826677876304
 30
0.0
 10
926.0179348695956
 20
-123.1170158212488
 30
0.0
 10
926.3933501280186
 20
-123.2043590980261
 30
0.0
 10
926.9369637896058
 20
-123.368745269822
 30
0.0
 10
927.5269274429945
 20
-123.6139611302394
 30
0.0
 10
927.9902568335724
 20
-123.8512638003787
 30
0.0
 10
928.3419075349185
 20
-124.0567239802646
 30
0.0
 10
928.6617715012284
 20
-124.2671885506332
 30
0.0
 10
928.9900875761326
 20
-124.5082549469578
 30
0.0
 10
929.3070986145792
 20
-124.7691970579617
 30
0.0
 10
929.6156876911508
 20
-125.0551374703384
 30
0.0
 10
929.9004538742441
 20
-125.3490788059024
 30
0.0
 10
930.1766276825748
 20
-125.6674025080349
 30
0.0
 10
930.4566439066326
 20
-126.031177790189
 30
0.0
 10
930.7374382749963
 20
-126.4484948503914
 30
0.0
 10
930.9206280040748
 20
-126.767596462179
 30
0.0
 10
931.0193547026684
 20
-126.9566926872209
 30
0.0
 10
931.0382614032789
 20
-126.9934137420227
 30
0.0
 10
931.0569836802267
 20
-127.030214682021
 30
0.0
 10
931.0692731896793
 20
-127.0548569622584
 30
0.0
 10
931.075420944943
 20
-127.067184135267
 30
0.0
 11
924.4514574851061
 21
-122.9485893521536
 31
0.0
 11
924.8884030772839
 21
-122.9618466718273
 31
0.0
 11
925.3761000623477
 21
-123.0074409538686
 31
0.0
 11
925.482002584868
 21
-123.0216842396468
 31
0.0
 11
925.6006565873482
 21
-123.039503963184
 31
0.0
 11
925.7184093731603
 21
-123.0591478234492
 31
0.0
 11
925.8174782128666
 21
-123.0771977838072
 31
0.0
 11
926.0095721574069
 21
-123.1162032450488
 31
0.0
 11
926.2248622800363
 21
-123.1662933740913
 31
0.0
 11
926.9323864914213
 21
-123.3802559537744
 31
0.0
 11
927.6161074233795
 21
-123.664405524334
 31
0.0
 11
928.0021936205802
 21
-123.8621388714919
 31
0.0
 11
928.3360691201204
 21
-124.0572118911751
 31
0.0
 11
928.6708976413889
 21
-124.2775184621745
 31
0.0
 11
928.9615707889697
 21
-124.4909434770374
 31
0.0
 11
929.3167911219547
 21
-124.7833314166554
 31
0.0
 11
929.6177183172741
 21
-125.062165876884
 31
0.0
 11
929.8898837791935
 21
-125.3430962420969
 31
0.0
 11
930.1689390655082
 21
-125.6647349181166
 31
0.0
 11
930.4413709436016
 21
-126.0186469832501
 31
0.0
 11
930.7226882438732
 21
-126.4367391610505
 31
0.0
 11
931.0001933344275
 21
-126.9200742776202
 31
0.0
 11
931.0193362635049
 21
-126.9567422678644
 31
0.0
 11
931.0382275815056
 21
-126.9934209645646
 31
0.0
 11
931.0569284357198
 21
-127.0302273855197
 31
0.0
 11
931.075420944943
 21
-127.067184135267
 31
0.0
  0
SPLINE
  5
291
330
1F
100
AcDbEntity
  8
0
  6
Continuous
 62
     2
100
AcDbSpline
210
0.0
220
0.0
230
1.0
 70
     8
 71
     3
 72
     9
 73
     5
 74
     3
 42
0.000000001
 43
0.0000000001
 44
0.00000001
 40
0.0
 40
0.0
 40
0.0
 40
0.0
 40
0.8462976106217637
 40
1.698496743026193
 40
1.698496743026193
 40
1.698496743026193
 40
1.698496743026193
 10
931.9176978214892
 20
-134.9042245003932
 30
0.0
 10
931.8785379704077
 20
-135.1911488127749
 30
0.0
 10
931.7999451750895
 20
-135.766998252226
 30
0.0
 10
931.402544286451
 20
-136.1912579237552
 30
0.0
 10
931.2031534381057
 20
-136.4041248114425
 30
0.0
 11
931.9176978214892
 21
-134.9042245003932
 31
0.0
 11
931.7210691319027
 21
-135.7273628895438
 31
0.0
 11
931.2031534381057
 21
-136.4041248114425
 31
0.0
  0
SPLINE
  5
292
330
1F
100
AcDbEntity
  8
0
  6
Continuous
 62
     2
100
AcDbSpline
210
0.0
220
0.0
230
1.0
 70
     8
 71
     3
 72
    50
 73
    46
 74
    44
 42
0.000000001
 43
0.0000000001
 44
0.00000001
 40
0.0
 40
0.0
 40
0.0
 40
0.0
 40
0.3755614505684882
 40
0.7585054208685651
 40
1.135731447448181
 40
1.276766774067949
 40
1.401127092192284
 40
1.510404926290845
 40
1.606192787899861
 40
1.690083175250624
 40
1.763668575442946
 40
1.828541471348135
 40
1.886294355835793
 40
1.938519754818371
 40
1.986810256386484
 40
2.032758535916739
 40
2.12884765100937
 40
2.221086801473926
 40
2.265653257571293
 40
2.309126678510405
 40
2.330435445917448
 40
2.351463226912915
 40
2.362133766431831
 40
2.37220911446219
 40
2.382524077530431
 40
2.392868560551592
 40
2.543898162982319
 40
2.682284975095928
 40
2.807599756447407
 40
2.919412901685382
 40
3.131993313822088
 40
3.324690069054012
 40
3.497715742557789
 40
3.651281655992874
 40
3.785597855632653
 40
3.934897068132466
 40
4.065970931777839
 40
4.179236400473745
 40
4.275108843270946
 40
4.354001984244562
 40
4.416327908435531
 40
4.462497160200694
 40
4.492919364389705
 40
4.545494382396704
 40
4.594201104559914
 40
4.594201104559914
 40
4.594201104559914
 40
4.594201104559914
 10
931.8237860039347
 20
-130.3135500636494
 30
0.0
 10
931.8224529288656
 20
-130.4387307518127
 30
0.0
 10
931.8197605886588
 20
-130.6915528411964
 30
0.0
 10
931.8129778854244
 20
-131.0700678465806
 30
0.0
 10
931.8055165417649
 20
-131.3703948900115
 30
0.0
 10
931.8047712746763
 20
-131.5846048288878
 30
0.0
 10
931.803878673144
 20
-131.7094923824974
 30
0.0
 10
931.8031364241165
 20
-131.8192986403999
 30
0.0
 10
931.8024299819438
 20
-131.9156147273971
 30
0.0
 10
931.8017917587806
 20
-132.0000335356256
 30
0.0
 10
931.8012219270574
 20
-132.0741475719679
 30
0.0
 10
931.8007279224138
 20
-132.1395494339185
 30
0.0
 10
931.8003158886995
 20
-132.1978317086023
 30
0.0
 10
931.7999927454399
 20
-132.2505869917864
 30
0.0
 10
931.7997655544843
 20
-132.2994078842354
 30
0.0
 10
931.7995970455461
 20
-132.3628503277839
 30
0.0
 10
931.7996751841204
 20
-132.4409428649448
 30
0.0
 10
931.8002230845877
 20
-132.5185731568176
 30
0.0
 10
931.8009821507242
 20
-132.5786615030339
 30
0.0
 10
931.8015902682569
 20
-132.6151061031078
 30
0.0
 10
931.8021639249918
 20
-132.6437036936431
 30
0.0
 10
931.8025595063544
 20
-132.6613683137137
 30
0.0
 10
931.8028977840979
 20
-132.6752887637562
 30
0.0
 10
931.8031610864541
 20
-132.6856390328272
 30
0.0
 10
931.8034214319721
 20
-132.6958806555711
 30
0.0
 10
931.8048886364274
 20
-132.7530915276777
 30
0.0
 10
931.8075863975525
 20
-132.8529755364601
 30
0.0
 10
931.8116736348148
 20
-132.9911589700119
 30
0.0
 10
931.8156780619984
 20
-133.1162666041265
 30
0.0
 10
931.8208158820905
 20
-133.2660814021137
 30
0.0
 10
931.8272825768342
 20
-133.4383241072464
 30
0.0
 10
931.8353692384528
 20
-133.6309226445071
 30
0.0
 10
931.8433928491941
 20
-133.8038332538737
 30
0.0
 10
931.8511815046409
 20
-133.9572721142937
 30
0.0
 10
931.8591866625065
 20
-134.1027795817963
 30
0.0
 10
931.8674173563614
 20
-134.2407647164747
 30
0.0
 10
931.8759063344046
 20
-134.3717032534808
 30
0.0
 10
931.8838207941646
 20
-134.4848311461145
 30
0.0
 10
931.8909943715084
 20
-134.5805735149355
 30
0.0
 10
931.8972655014562
 20
-134.6593550432146
 30
0.0
 10
931.9024632389778
 20
-134.7216013518347
 30
0.0
 10
931.906449914512
 20
-134.7677351282643
 30
0.0
 10
931.9100931591631
 20
-134.8106364890311
 30
0.0
 10
931.9132513443674
 20
-134.8544256394256
 30
0.0
 10
931.9162538931485
 20
-134.8880529941921
 30
0.0
 10
931.9176978214892
 20
-134.9042245003932
 30
0.0
 11
931.8237860039347
 21
-130.3135500636494
 31
0.0
 11
931.8193362993392
 21
-130.6890851515145
 31
0.0
 11
931.8124986416669
 21
-131.0719680728962
 31
0.0
 11
931.805515864705
 21
-131.4491294654328
 31
0.0
 11
931.8046602931668
 21
-131.5901621968478
 31
0.0
 11
931.8038512828897
 21
-131.7145198834453
 31
0.0
 11
931.8030948587149
 21
-131.8237950995057
 31
0.0
 11
931.8023970454833
 21
-131.9195804193095
 31
0.0
 11
931.8017638680363
 21
-132.0034684171372
 31
0.0
 11
931.8012013512148
 21
-132.077051667269
 31
0.0
 11
931.8007155198608
 21
-132.1419227439855
 31
0.0
 11
931.8003123988146
 21
-132.1996742215671
 31
0.0
 11
931.7999980129179
 21
-132.2518986742942
 31
0.0
 11
931.7997783870117
 21
-132.3001886764472
 31
0.0
 11
931.7996595459373
 21
-132.3461368023066
 31
0.0
 11
931.79977544493
 21
-132.4422258475256
 31
0.0
 11
931.8004507747386
 21
-132.5344625257471
 31
0.0
 11
931.8010172160583
 21
-132.5790253819495
 31
0.0
 11
931.8017463110924
 21
-132.6224926886017
 31
0.0
 11
931.802174133315
 21
-132.6437971608123
 31
0.0
 11
931.8026456491353
 21
-132.664819654621
 31
0.0
 11
931.8029046746062
 21
-132.6754870497706
 31
0.0
 11
931.803159014018
 21
-132.6855591870437
 31
0.0
 11
931.8034215581839
 21
-132.6958708083276
 31
0.0
 11
931.8036866735634
 21
-132.7062118935051
 31
0.0
 11
931.8077675891426
 21
-132.857186351279
 31
0.0
 11
931.8118611812623
 21
-132.9955126041437
 31
0.0
 11
931.8158724250343
 21
-133.1207631702517
 31
0.0
 11
931.8197062955707
 21
-133.2325105677556
 31
0.0
 11
931.8276959801439
 21
-133.4449407831284
 31
0.0
 11
931.8357933175132
 21
-133.63746733308
 31
0.0
 11
931.8438261901764
 21
-133.8103064388861
 31
0.0
 11
931.8516224806315
 21
-133.9636743218223
 31
0.0
 11
931.8590100713765
 21
-134.0977872031642
 31
0.0
 11
931.8679156302557
 21
-134.2468205748996
 31
0.0
 11
931.8764097568487
 21
-134.377618921994
 31
0.0
 11
931.8843261433684
 21
-134.4906074046895
 31
0.0
 11
931.8914984820284
 21
-134.5862111832283
 31
0.0
 11
931.897760465042
 21
-134.6648554178526
 31
0.0
 11
931.902945784622
 21
-134.7269652688047
 31
0.0
 11
931.9068881329816
 21
-134.7729658963266
 31
0.0
 11
931.9094212023343
 21
-134.8032824606607
 31
0.0
 11
931.9134987498134
 21
-134.8556991194502
 31
0.0
 11
931.9176978214892
 21
-134.9042245003932
 31
0.0
  0
SPLINE
  5
293
330
1F
100
AcDbEntity
  8
0
  6
Continuous
 62
     2
100
AcDbSpline
210
0.0
220
0.0
230
1.0
 70
     8
 71
     3
 72
    41
 73
    37
 74
    35
 42
0.000000001
 43
0.0000000001
 44
0.00000001
 40
0.0
 40
0.0
 40
0.0
 40
0.0
 40
0.0465034867191458
 40
0.0938601738537772
 40
0.2329619917866759
 40
0.3799863957803949
 40
0.5379819434346421
 40
0.6823825282952343
 40
0.8261054707545583
 40
0.995252906836805
 40
1.064312288629515
 40
1.154703491415937
 40
1.189095715590003
 40
1.235272615606218
 40
1.277057828246253
 40
1.316257047728553
 40
1.386750496885689
 40
1.477250929186178
 40
1.561935362585881
 40
1.638523433706579
 40
1.706811182742239
 40
1.799178018520969
 40
1.818667182994142
 40
1.83914277663607
 40
1.855306442887912
 40
1.879001621907342
 40
1.91717806231121
 40
1.958350381586155
 40
1.994384185537084
 40
2.052544017928546
 40
2.099634143050023
 40
2.146234495766426
 40
2.234851106385221
 40
2.331467843711029
 40
2.52178088011077
 40
2.687305789826775
 40
2.687305789826775
 40
2.687305789826775
 40
2.687305789826775
 10
931.075420944943
 20
-127.067184135267
 30
0.0
 10
931.0817283930259
 20
-127.0813441601661
 30
0.0
 10
931.0944589926594
 20
-127.1099240127573
 30
0.0
 10
931.1251794137455
 20
-127.1812446654147
 30
0.0
 10
931.1673944743877
 20
-127.284090626034
 30
0.0
 10
931.2204426301591
 20
-127.4223119108769
 30
0.0
 10
931.2713409946946
 20
-127.5632164287791
 30
0.0
 10
931.3195849442454
 20
-127.7038846545195
 30
0.0
 10
931.3671300079421
 20
-127.8487071808295
 30
0.0
 10
931.4053091521264
 20
-127.9701615509848
 30
0.0
 10
931.4372722587932
 20
-128.0749271028118
 30
0.0
 10
931.4557609842686
 20
-128.1368403140856
 30
0.0
 10
931.4718273661916
 20
-128.1915154164849
 30
0.0
 10
931.4832165185496
 20
-128.2306777956008
 30
0.0
 10
931.4949271777642
 20
-128.2714151595266
 30
0.0
 10
931.5087356193131
 20
-128.3199830346554
 30
0.0
 10
931.526729408738
 20
-128.3842426152559
 30
0.0
 10
931.5483412205747
 20
-128.4632329077853
 30
0.0
 10
931.5699299573835
 20
-128.5443336115896
 30
0.0
 10
931.5891226858218
 20
-128.6184082311133
 30
0.0
 10
931.6084620691714
 20
-128.6950883981395
 30
0.0
 10
931.622704518868
 20
-128.7534237346339
 30
0.0
 10
931.6329507282134
 20
-128.7963277474676
 30
0.0
 10
931.6372637347827
 20
-128.8145333211157
 30
0.0
 10
931.641867401968
 20
-128.8341108134688
 30
0.0
 10
931.6477614036091
 20
-128.8594460506108
 30
0.0
 10
931.6554255269631
 20
-128.8929281737169
 30
0.0
 10
931.6638372976139
 20
-128.9304580410473
 30
0.0
 10
931.673513091163
 20
-128.9745305002025
 30
0.0
 10
931.6833710114684
 20
-129.0205821828649
 30
0.0
 10
931.6936526756789
 20
-129.0701440185285
 30
0.0
 10
931.7056468168116
 20
-129.1297178424939
 30
0.0
 10
931.7202468387397
 20
-129.2056065570178
 30
0.0
 10
931.7422942465206
 20
-129.3288325609782
 30
0.0
 10
931.7660886049844
 20
-129.4777956581917
 30
0.0
 10
931.7807359081602
 20
-129.595506699384
 30
0.0
 10
931.7875493744226
 20
-129.6502622705373
 30
0.0
 11
931.075420944943
 21
-127.067184135267
 31
0.0
 11
931.0942565352466
 21
-127.1097023053164
 31
0.0
 11
931.1130175719096
 21
-127.15318424796
 31
0.0
 11
931.1659084908104
 21
-127.2818383052428
 31
0.0
 11
931.2186933739359
 21
-127.4190605025851
 31
0.0
 11
931.2724586765362
 21
-127.5676265998981
 31
0.0
 11
931.3193567418172
 21
-127.7041992924339
 31
0.0
 11
931.3642215957996
 21
-127.840740235137
 31
0.0
 11
931.4149909126228
 21
-128.0020887137813
 31
0.0
 11
931.4351407137196
 21
-128.0681431135035
 31
0.0
 11
931.4610103083418
 21
-128.1547533531066
 31
0.0
 11
931.4707067420143
 21
-128.1877503871565
 31
0.0
 11
931.4836012928118
 21
-128.2320903990196
 31
0.0
 11
931.4951451660813
 21
-128.2722493704088
 31
0.0
 11
931.5058650121993
 21
-128.3099543263863
 31
0.0
 11
931.5248720422262
 21
-128.3778370132616
 31
0.0
 11
931.5487489916255
 21
-128.4651308820274
 31
0.0
 11
931.5705290081744
 21
-128.5469665963042
 31
0.0
 11
931.5897320501246
 21
-128.6211081892978
 31
0.0
 11
931.6064279162807
 21
-128.6873234799573
 31
0.0
 11
931.6283417567514
 21
-128.7770531625637
 31
0.0
 11
931.632868766559
 21
-128.7960092622105
 31
0.0
 11
931.6375888904716
 21
-128.8159333773729
 31
0.0
 11
931.6412876555712
 21
-128.8316681555193
 31
0.0
 11
931.6466571644597
 21
-128.8547469311114
 31
0.0
 11
931.6551756197347
 21
-128.8919608602405
 31
0.0
 11
931.6641806254162
 21
-128.9321363471327
 31
0.0
 11
931.6719080387509
 21
-128.9673318313689
 31
0.0
 11
931.6840770223795
 21
-129.0242043374145
 31
0.0
 11
931.6936404245575
 21
-129.0703131351273
 31
0.0
 11
931.7028373186773
 21
-129.1159969398993
 31
0.0
 11
931.71956204011
 21
-129.2030210022538
 31
0.0
 11
931.7365945164275
 21
-129.2981245723451
 31
0.0
 11
931.7662291467755
 21
-129.4861161666159
 31
0.0
 11
931.7875493744226
 21
-129.6502622705373
 31
0.0
  0
SPLINE
  5
294
330
1F
100
AcDbEntity
  8
0
  6
Continuous
 62
     2
100
AcDbSpline
210
0.0
220
0.0
230
1.0
 70
     8
 71
     3
 72
    36
 73
    32
 74
    30
 42
0.000000001
 43
0.0000000001
 44
0.00000001
 40
0.0
 40
0.0
 40
0.0
 40
0.0
 40
0.023763954060958
 40
0.0529848130118059
 40
0.0832318835585623
 40
0.1060411247441754
 40
0.1626751300696743
 40
0.2126481204378717
 40
0.3190929431556874
 40
0.4280186801628718
 40
0.5233495615977987
 40
0.6186093797286313
 40
0.713774657058275
 40
0.8087774935332878
 40
0.8795302635637393
 40
0.9429634608774816
 40
0.9984485284009202
 40
1.054340609209416
 40
1.117408459388801
 40
1.186893201352683
 40
1.268524689194268
 40
1.34084418183774
 40
1.403395769991185
 40
1.460407310626987
 40
1.510462911470166
 40
1.535238579111202
 40
1.563744372046779
 40
1.576377458990101
 40
1.590336592141474
 40
1.607434958436749
 40
1.616958017351992
 40
1.616958017351992
 40
1.616958017351992
 40
1.616958017351992
 10
589.7027930095236
 20
-136.9275154884979
 30
0.0
 10
589.6948714633523
 20
-136.9274652631344
 30
0.0
 10
589.6772093505047
 20
-136.9273532634975
 30
0.0
 10
589.6494822301867
 20
-136.9262178495397
 30
0.0
 10
589.6221224020157
 20
-136.924253356264
 30
0.0
 10
589.5857405450986
 20
-136.9205880409273
 30
0.0
 10
589.5430099099015
 20
-136.9144522446347
 30
0.0
 10
589.4733615417347
 20
-136.900451306267
 30
0.0
 10
589.3881492512577
 20
-136.8760583773722
 30
0.0
 10
589.2919995777789
 20
-136.8370576707982
 30
0.0
 10
589.20343628449
 20
-136.7906877967251
 30
0.0
 10
589.1231494550793
 20
-136.7392106859013
 30
0.0
 10
589.0476557108918
 20
-136.6811219437468
 30
0.0
 10
588.9833603785369
 20
-136.6223927569673
 30
0.0
 10
588.9308420875905
 20
-136.5668458223671
 30
0.0
 10
588.8901937275284
 20
-136.5183764022712
 30
0.0
 10
588.8551628564991
 20
-136.4717823614304
 30
0.0
 10
588.8225895615951
 20
-136.423583980538
 30
0.0
 10
588.7902889930779
 20
-136.3696681251997
 30
0.0
 10
588.7574387487352
 20
-136.3062237675692
 30
0.0
 10
588.7280353872602
 20
-136.2377061707578
 30
0.0
 10
588.7046839309083
 20
-136.1693543913534
 30
0.0
 10
588.6881977877101
 20
-136.1075088116914
 30
0.0
 10
588.6770627510423
 20
-136.0520421420649
 30
0.0
 10
588.6708799284637
 20
-136.0085086144854
 30
0.0
 10
588.6674202197383
 20
-135.9742338310505
 30
0.0
 10
588.6658498346104
 20
-135.9523143694026
 30
0.0
 10
588.6649496231687
 20
-135.9339699691212
 30
0.0
 10
588.6644520756554
 20
-135.9194144629751
 30
0.0
 10
588.6642085398747
 20
-135.905888699398
 30
0.0
 10
588.6642047581358
 20
-135.8970148263032
 30
0.0
 10
588.6642034119242
 20
-135.8938404501731
 30
0.0
 11
589.7027930095236
 21
-136.9275154884979
 31
0.0
 11
589.6790306287327
 21
-136.9272419423901
 31
0.0
 11
589.6498326848875
 21
-136.9260849017836
 31
0.0
 11
589.6196638139447
 21
-136.9239112957978
 31
0.0
 11
589.596969279291
 21
-136.9216266496895
 31
0.0
 11
589.5409090065729
 21
-136.9135857222912
 31
0.0
 11
589.4919147356949
 21
-136.9037439106568
 31
0.0
 11
589.3895604130429
 21
-136.8745190390455
 31
0.0
 11
589.2885925166336
 21
-136.833649733295
 31
0.0
 11
589.2041173854986
 21
-136.7894690910056
 31
0.0
 11
589.1239077266985
 21
-136.7380799530046
 31
0.0
 11
589.0484735896565
 21
-136.6800616726619
 31
0.0
 11
588.9783250237963
 21
-136.6159936033475
 31
0.0
 11
588.9297183905738
 21
-136.5645800876219
 31
0.0
 11
588.8889612360935
 21
-136.5159732482885
 31
0.0
 11
588.8556222221642
 21
-136.4716212152035
 31
0.0
 11
588.8243317420167
 21
-136.4253089001161
 31
0.0
 11
588.7919299832539
 21
-136.3712008624288
 31
0.0
 11
588.759997520635
 21
-136.3094882446091
 31
0.0
 11
588.727837483531
 21
-136.2344587047639
 31
0.0
 11
588.7044811770568
 21
-136.16601462534
 31
0.0
 11
588.6883851423996
 21
-136.1055694526565
 31
0.0
 11
588.6771753749827
 21
-136.0496708216564
 31
0.0
 11
588.6701436001496
 21
-136.0001115903602
 31
0.0
 11
588.6676563309703
 21
-135.9754610886804
 31
0.0
 11
588.6656195343631
 21
-135.9470281542301
 31
0.0
 11
588.6650009898941
 21
-135.9344102182245
 31
0.0
 11
588.6645216124074
 21
-135.9204593175619
 31
0.0
 11
588.6642274139695
 21
-135.9033634803519
 31
0.0
 11
588.6642034119242
 21
-135.8938404501731
 31
0.0
  0
SPLINE
  5
295
330
1F
100
AcDbEntity
  8
0
  6
Continuous
 62
     2
100
AcDbSpline
210
0.0
220
0.0
230
1.0
 70
     8
 71
     3
 72
    36
 73
    32
 74
    30
 42
0.000000001
 43
0.0000000001
 44
0.00000001
 40
0.0
 40
0.0
 40
0.0
 40
0.0
 40
0.1393170927942501
 40
0.2471529207598837
 40
0.3746321621199288
 40
0.4819387614058845
 40
0.7231623364687366
 40
0.9666053405202066
 40
1.098861549103701
 40
1.242621031247321
 40
1.312258703395124
 40
1.394925880413085
 40
1.414761555876199
 40
1.434786360123167
 40
1.454242511194017
 40
1.475248164738157
 40
1.515806795212883
 40
1.556471235836653
 40
1.889753476026093
 40
2.219395388702868
 40
2.545113703747282
 40
2.914009398207372
 40
3.104682357356405
 40
3.277707299681908
 40
3.459185813473503
 40
3.655494071912149
 40
4.060873305744485
 40
4.466737383165236
 40
4.804182682383707
 40
5.112049199951884
 40
5.388293877873218
 40
5.388293877873218
 40
5.388293877873218
 40
5.388293877873218
 10
603.4117574796891
 20
-117.0402654242036
 30
0.0
 10
603.4188254141961
 20
-117.0861647863635
 30
0.0
 10
603.431364139812
 20
-117.167591705845
 30
0.0
 10
603.4477924241761
 20
-117.2913904184625
 30
0.0
 10
603.4609870416444
 20
-117.4048405126055
 30
0.0
 10
603.4761749440917
 20
-117.5627881677437
 30
0.0
 10
603.488632682276
 20
-117.7598056303423
 30
0.0
 10
603.4901681929958
 20
-117.9655715147247
 30
0.0
 10
603.4833046752694
 20
-118.1386153133527
 30
0.0
 10
603.4747253319782
 20
-118.2535423301081
 30
0.0
 10
603.4647384896749
 20
-118.3517273388233
 30
0.0
 10
603.4578478205669
 20
-118.4086972713583
 30
0.0
 10
603.4524296431784
 20
-118.4491788785365
 30
0.0
 10
603.4497113248984
 20
-118.4687634407522
 30
0.0
 10
603.4468391079821
 20
-118.4887200783158
 30
0.0
 10
603.4428899067688
 20
-118.5154366218878
 30
0.0
 10
603.4377128135675
 20
-118.5491177863718
 30
0.0
 10
603.4156829741204
 20
-118.6855182261953
 30
0.0
 10
603.3701689469069
 20
-118.9157690491462
 30
0.0
 10
603.2862703292136
 20
-119.2346680732962
 30
0.0
 10
603.1792520436863
 20
-119.55909425865
 30
0.0
 10
603.0686882292247
 20
-119.8329753480519
 30
0.0
 10
602.9655218255253
 20
-120.0543582468554
 30
0.0
 10
602.8831858475892
 20
-120.2163974970465
 30
0.0
 10
602.7946080063347
 20
-120.3772632688035
 30
0.0
 10
602.6606621819714
 20
-120.6013931065537
 30
0.0
 10
602.4721979514354
 20
-120.8797945372327
 30
0.0
 10
602.2339583996463
 20
-121.1800456576409
 30
0.0
 10
601.9971967678512
 20
-121.4385993183849
 30
0.0
 10
601.7770921051169
 20
-121.6532379399936
 30
0.0
 10
601.628679965876
 20
-121.779333092299
 30
0.0
 10
601.5584911616405
 20
-121.8389674767125
 30
0.0
 11
603.4117574796891
 21
-117.0402654242036
 31
0.0
 11
603.4324209126291
 21
-117.1780416019468
 31
0.0
 11
603.4466670983496
 21
-117.284932256608
 31
0.0
 11
603.4613068105843
 21
-117.4115680962137
 31
0.0
 11
603.4715432341956
 21
-117.5183853323006
 31
0.0
 11
603.4863582285385
 21
-117.7591535389453
 31
0.0
 11
603.4879680703172
 21
-118.0025912206462
 31
0.0
 11
603.482721062931
 21
-118.1347433061263
 31
0.0
 11
603.4720225564123
 21
-118.2781041472127
 31
0.0
 11
603.4649775031435
 21
-118.3473845385879
 31
0.0
 11
603.4550533331541
 21
-118.4294538570871
 31
0.0
 11
603.4524221517162
 21
-118.4491142463825
 31
0.0
 11
603.4496684360037
 21
-118.4689488080588
 31
0.0
 11
603.446900925868
 21
-118.4882071232508
 31
0.0
 11
603.4438293823815
 21
-118.5089869958113
 31
0.0
 11
603.4376674472486
 21
-118.5490748127834
 31
0.0
 11
603.4311837957786
 21
-118.5892190403015
 31
0.0
 11
603.3665531845456
 21
-118.9161745972977
 31
0.0
 11
603.2826839783038
 21
-119.2349688056842
 31
0.0
 11
603.1806466018342
 21
-119.5442919295401
 31
0.0
 11
603.0425550811606
 21
-119.8863661404219
 31
0.0
 11
602.9620166812399
 21
-120.0591947942726
 31
0.0
 11
602.883636061996
 21
-120.2134481873424
 31
0.0
 11
602.7961020634359
 21
-120.3724206697034
 31
0.0
 11
602.6953937685954
 21
-120.5409281525523
 31
0.0
 11
602.4681664546426
 21
-120.876636465577
 31
0.0
 11
602.2158161159203
 21
-121.1945121587666
 31
0.0
 11
601.9881338933252
 21
-121.4435706575115
 31
0.0
 11
601.7670662986777
 21
-121.6578389741956
 31
0.0
 11
601.5584911616405
 21
-121.8389674767125
 31
0.0
  0
SPLINE
  5
296
330
1F
100
AcDbEntity
  8
0
  6
Continuous
 62
     2
100
AcDbSpline
210
0.0
220
0.0
230
1.0
 70
     8
 71
     3
 72
    23
 73
    19
 74
    17
 42
0.000000001
 43
0.0000000001
 44
0.00000001
 40
0.0
 40
0.0
 40
0.0
 40
0.0
 40
0.2848455028544976
 40
0.5454646016373101
 40
0.8237921905443213
 40
1.063640280601093
 40
1.701397349895992
 40
2.314472902464977
 40
2.478878742648749
 40
2.661036495957095
 40
2.807190816744339
 40
2.970292452630533
 40
3.103877813934004
 40
3.263529721033455
 40
3.391577469367663
 40
3.490670815039668
 40
3.578808031508653
 40
3.634983768401007
 40
3.634983768401007
 40
3.634983768401007
 40
3.634983768401007
 10
598.1642034119747
 20
-122.9485893549449
 30
0.0
 10
598.2591616099867
 20
-122.947289702082
 30
0.0
 10
598.4410017129001
 20
-122.9448009190326
 30
0.0
 10
598.7150168822748
 20
-122.9249933307965
 30
0.0
 10
598.9730067055463
 20
-122.895396509637
 30
0.0
 10
599.3535449367492
 20
-122.8344152650774
 30
0.0
 10
599.8380143707977
 20
-122.7192975744423
 30
0.0
 10
600.2833684316813
 20
-122.5606544812411
 30
0.0
 10
600.5764843139875
 20
-122.4325003948239
 30
0.0
 10
600.7248413642615
 20
-122.3619562944886
 30
0.0
 10
600.8705668484378
 20
-122.2871097192909
 30
0.0
 10
600.9998535422118
 20
-122.2158175088528
 30
0.0
 10
601.1308713596719
 20
-122.1385017858824
 30
0.0
 10
601.2496370052597
 20
-122.0635182646671
 30
0.0
 10
601.356460302119
 20
-121.9912871411963
 30
0.0
 10
601.4418114131261
 20
-121.9299579099824
 30
0.0
 10
601.5065584283088
 20
-121.8810335795606
 30
0.0
 10
601.543939922854
 20
-121.8507541529465
 30
0.0
 10
601.5584911616405
 20
-121.8389674767125
 30
0.0
 11
598.1642034119747
 21
-122.9485893549449
 31
0.0
 11
598.4489678101053
 21
-122.9417925185526
 31
0.0
 11
598.7089553524441
 21
-122.92365991124
 31
0.0
 11
598.9854452277347
 21
-122.8917288247885
 31
0.0
 11
599.2222758299989
 21
-122.8538029585076
 31
0.0
 11
599.8426820221591
 21
-122.7060523711992
 31
0.0
 11
600.420090566551
 21
-122.4999916797087
 31
0.0
 11
600.5707232555512
 21
-122.4341200360405
 31
0.0
 11
600.735221508192
 21
-122.3558782816457
 31
0.0
 11
600.8652238202396
 21
-122.289091423366
 31
0.0
 11
601.0080366260999
 21
-122.210309152447
 31
0.0
 11
601.1230714229432
 21
-122.1423971187193
 31
0.0
 11
601.2580384428885
 21
-122.0571173730511
 31
0.0
 11
601.3640626869467
 21
-121.9853184488876
 31
0.0
 11
601.4445302414925
 21
-121.9274871108425
 31
0.0
 11
601.5146849576374
 21
-121.8741346506731
 31
0.0
 11
601.5584911616405
 21
-121.8389674767125
 31
0.0
  0
SPLINE
  5
297
330
1F
100
AcDbEntity
  8
0
  6
Continuous
 62
     7
100
AcDbSpline
210
0.0
220
0.0
230
1.0
 70
     8
 71
     3
 72
    15
 73
    11
 74
     9
 42
0.000000001
 43
0.0000000001
 44
0.00000001
 40
0.0
 40
0.0
 40
0.0
 40
0.0
 40
1.372021433385085
 40
2.743873489505854
 40
4.115595912505332
 40
5.487248178726432
 40
6.858900444947608
 40
8.230622867947117
 40
9.602474924068098
 40
10.97449635745303
 40
10.97449635745303
 40
10.97449635745303
 40
10.97449635745303
 10
926.6666021371374
 20
-107.540265424196
 30
0.0
 10
927.1246756599865
 20
-107.5663000680612
 30
0.0
 10
928.0407661546753
 20
-107.6183661561854
 30
0.0
 10
929.3620338835617
 20
-108.0343731758368
 30
0.0
 10
930.5797266756535
 20
-108.6809902436573
 30
0.0
 10
931.6466141986317
 20
-109.5578546375305
 30
0.0
 10
932.523478592505
 20
-110.624742160509
 30
0.0
 10
933.170095660326
 20
-111.8424349526009
 30
0.0
 10
933.5861026799769
 20
-113.163702681487
 30
0.0
 10
933.6381687681012
 20
-114.0797931761759
 30
0.0
 10
933.664203411966
 20
-114.5378666990251
 30
0.0
 11
926.6666021371374
 21
-107.540265424196
 31
0.0
 11
928.0320217525791
 21
-107.6746979060208
 31
0.0
 11
929.3448305737593
 21
-108.0728323913251
 31
0.0
 11
930.5546215831508
 21
-108.7193833358355
 31
0.0
 11
931.6149442241336
 21
-109.5895246120287
 31
0.0
 11
932.4850855003267
 21
-110.6498472530117
 31
0.0
 11
933.1316364448375
 21
-111.8596382624032
 31
0.0
 11
933.5297709301418
 21
-113.1724470835834
 31
0.0
 11
933.664203411966
 21
-114.5378666990251
 31
0.0
  0
SPLINE
  5
298
330
1F
100
AcDbEntity
  8
0
  6
Continuous
 62
     7
100
AcDbSpline
210
0.0
220
0.0
230
1.0
 70
     8
 71
     3
 72
     9
 73
     5
 74
     3
 42
0.000000001
 43
0.0000000001
 44
0.00000001
 40
0.0
 40
0.0
 40
0.0
 40
0.0
 40
0.0187444781274733
 40
0.0367463863978853
 40
0.0367463863978853
 40
0.0367463863978853
 40
0.0367463863978853
 10
1336.030338085387
 20
-136.927515488558
 30
0.0
 10
1336.02409245987
 20
-136.9277471548546
 30
0.0
 10
1336.011848632916
 20
-136.9282013298624
 30
0.0
 10
1335.999657783428
 20
-136.9294247503003
 30
0.0
 10
1335.993685535622
 20
-136.9300241088648
 30
0.0
 11
1336.030338085387
 21
-136.927515488558
 31
0.0
 11
1336.011614994405
 21
-136.928410660175
 31
0.0
 11
1335.993685535622
 21
-136.9300241088648
 31
0.0
  0
SPLINE
  5
299
330
1F
100
AcDbEntity
  8
0
  6
Continuous
 62
     7
100
AcDbSpline
210
0.0
220
0.0
230
1.0
 70
     8
 71
     3
 72
     9
 73
     5
 74
     3
 42
0.000000001
 43
0.0000000001
 44
0.00000001
 40
0.0
 40
0.0
 40
0.0
 40
0.0
 40
0.00359467127311
 40
0.0071888761637428
 40
0.0071888761637428
 40
0.0071888761637428
 40
0.0071888761637428
 10
1322.043437687335
 20
-284.2546190121229
 30
0.0
 10
1322.043443552707
 20
-284.2558172934002
 30
0.0
 10
1322.043455302687
 20
-284.2582137001928
 30
0.0
 10
1322.043537424529
 20
-284.2606087282663
 30
0.0
 10
1322.043578492783
 20
-284.2618061643689
 30
0.0
 11
1322.043437687335
 21
-284.2546190121229
 31
0.0
 11
1322.043472888699
 21
-284.2582135111325
 31
0.0
 11
1322.043578492783
 21
-284.2618061643689
 31
0.0
  0
SPLINE
  5
29A
330
1F
100
AcDbEntity
  8
0
  6
Continuous
 62
     7
100
AcDbSpline
210
0.0
220
0.0
230
1.0
 70
     8
 71
     3
 72
     9
 73
     5
 74
     3
 42
0.000000001
 43
0.0000000001
 44
0.00000001
 40
0.0
 40
0.0
 40
0.0
 40
0.0
 40
0.0493421747013182
 40
0.0987429992176447
 40
0.0987429992176447
 40
0.0987429992176447
 40
0.0987429992176447
 10
1351.829607266369
 20
-122.9521329887725
 30
0.0
 10
1351.81317496402
 20
-122.9514229916473
 30
0.0
 10
1351.780290826553
 20
-122.9500021734545
 30
0.0
 10
1351.747389482113
 20
-122.9490604723661
 30
0.0
 10
1351.730929038448
 20
-122.9485893521537
 30
0.0
 11
1351.829607266369
 21
-122.9521329887725
 31
0.0
 11
1351.78030606228
 21
-122.9501226444054
 31
0.0
 11
1351.730929038448
 21
-122.9485893521537
 31
0.0
  0
SPLINE
  5
29B
330
1F
100
AcDbEntity
  8
0
  6
Continuous
 62
     7
100
AcDbSpline
210
0.0
220
0.0
230
1.0
 70
     8
 71
     3
 72
     9
 73
     5
 74
     3
 42
0.000000001
 43
0.0000000001
 44
0.00000001
 40
0.0
 40
0.0
 40
0.0
 40
0.0
 40
0.0437561079365378
 40
0.0874190920524949
 40
0.0874190920524949
 40
0.0874190920524949
 40
0.0874190920524949
 10
1335.63468126556
 20
-137.1505429112015
 30
0.0
 10
1335.626528578453
 20
-137.1626559421008
 30
0.0
 10
1335.610240572189
 20
-137.1868562348261
 30
0.0
 10
1335.597083345228
 20
-137.2128915189356
 30
0.0
 10
1335.590511748371
 20
-137.2258952987164
 30
0.0
 11
1335.63468126556
 21
-137.1505429112015
 31
0.0
 11
1335.611007575902
 21
-137.1873417350421
 31
0.0
 11
1335.590511748371
 21
-137.2258952987164
 31
0.0
  0
SPLINE
  5
29C
330
1F
100
AcDbEntity
  8
0
  6
Continuous
 62
     7
100
AcDbSpline
210
0.0
220
0.0
230
1.0
 70
     8
 71
     3
 72
     9
 73
     5
 74
     3
 42
0.000000001
 43
0.0000000001
 44
0.00000001
 40
0.0
 40
0.0
 40
0.0
 40
0.0
 40
0.1039353281057328
 40
0.2081715544176908
 40
0.2081715544176908
 40
0.2081715544176908
 40
0.2081715544176908
 10
1335.590511748371
 20
-137.2258952987164
 30
0.0
 10
1335.577036963335
 20
-137.2581025166837
 30
0.0
 10
1335.550048402035
 20
-137.3226101997761
 30
0.0
 10
1335.545643374793
 20
-137.3923990135135
 30
0.0
 10
1335.543437687341
 20
-137.427343859652
 30
0.0
 11
1335.590511748371
 21
-137.2258952987164
 31
0.0
 11
1335.555716976285
 21
-137.3238334245691
 31
0.0
 11
1335.543437687341
 21
-137.427343859652
 31
0.0
  0
SPLINE
  5
29D
330
1F
100
AcDbEntity
  8
0
  6
Continuous
 62
     7
100
AcDbSpline
210
0.0
220
0.0
230
1.0
 70
     8
 71
     3
 72
    25
 73
    21
 74
    19
 42
0.000000001
 43
0.0000000001
 44
0.00000001
 40
0.0
 40
0.0
 40
0.0
 40
0.0
 40
0.0139951969450222
 40
0.0409096413264762
 40
0.0871223475029745
 40
0.1887968200772988
 40
0.3119898532002308
 40
0.5017539127588617
 40
0.7345497581139138
 40
1.008934023875844
 40
1.323425123810146
 40
1.67652236245824
 40
2.06671449914112
 40
2.579292372282588
 40
3.13297188074541
 40
3.723441790914211
 40
4.34638710854254
 40
4.997490529273759
 40
5.991105916402315
 40
7.006475720179608
 40
7.006475720179608
 40
7.006475720179608
 40
7.006475720179608
 10
1322.043578492782
 20
-291.2522129076518
 30
0.0
 10
1322.047827310105
 20
-291.2500179651072
 30
0.0
 10
1322.06024712338
 20
-291.2436019002712
 30
0.0
 10
1322.070238476507
 20
-291.2140358184525
 30
0.0
 10
1322.086010813228
 20
-291.15933935455
 30
0.0
 10
1322.098968574547
 20
-291.068782709653
 30
0.0
 10
1322.113692717955
 20
-290.9318107692035
 30
0.0
 10
1322.126292823493
 20
-290.7500846741729
 30
0.0
 10
1322.137456466369
 20
-290.518111227562
 30
0.0
 10
1322.146153120113
 20
-290.2443206527308
 30
0.0
 10
1322.152434240964
 20
-289.9303969381634
 30
0.0
 10
1322.156190532184
 20
-289.5778161643358
 30
0.0
 10
1322.157471059022
 20
-289.1591934689132
 30
0.0
 10
1322.155522829329
 20
-288.6737096813786
 30
0.0
 10
1322.149780261186
 20
-288.1214940865868
 30
0.0
 10
1322.140395909865
 20
-287.5325346351599
 30
0.0
 10
1322.127450595036
 20
-286.9111607583679
 30
0.0
 10
1322.108238317602
 20
-286.1555153880732
 30
0.0
 10
1322.081429103439
 20
-285.269216329788
 30
0.0
 10
1322.056286113051
 20
-284.6000250124306
 30
0.0
 10
1322.043578492783
 20
-284.2618061643689
 30
0.0
 11
1322.043578492782
 21
-291.2522129076518
 31
0.0
 11
1322.055420491227
 21
-291.2447541847894
 31
0.0
 11
1322.067783091092
 21
-291.2208470011834
 31
0.0
 11
1322.080393778028
 21
-291.1763882030013
 31
0.0
 11
1322.097375010844
 21
-291.0761418264171
 31
0.0
 11
1322.110726199738
 21
-290.9536744057983
 31
0.0
 11
1322.124696849515
 21
-290.7644253128427
 31
0.0
 11
1322.136209666528
 21
-290.5319143225417
 31
0.0
 11
1322.145227955946
 21
-290.2576783006295
 31
0.0
 11
1322.151715022933
 21
-289.9432541128404
 31
0.0
 11
1322.155634172655
 21
-289.5901786249083
 31
0.0
 11
1322.156948710278
 21
-289.1999887025677
 31
0.0
 11
1322.155053304274
 21
-288.6874143338741
 31
0.0
 11
1322.149413591881
 21
-288.133763548891
 31
0.0
 11
1322.140099331389
 21
-287.5433671063645
 31
0.0
 11
1322.12718028109
 21
-286.9205557650413
 31
0.0
 11
1322.110726199276
 21
-286.269660283668
 31
0.0
 11
1322.080450755976
 21
-285.2765062497464
 31
0.0
 11
1322.043578492783
 21
-284.2618061643689
 31
0.0
  0
SPLINE
  5
29E
330
1F
100
AcDbEntity
  8
0
  6
Continuous
 62
     7
100
AcDbSpline
210
0.0
220
0.0
230
1.0
 70
     8
 71
     3
 72
    15
 73
    11
 74
     9
 42
0.000000001
 43
0.0000000001
 44
0.00000001
 40
0.0
 40
0.0
 40
0.0
 40
0.0
 40
0.0041802569977606
 40
0.008385350710352
 40
0.010924429901249
 40
0.0134457235044946
 40
0.0143032139802647
 40
0.0152118060138853
 40
0.0159699973156754
 40
0.0163762855907915
 40
0.0163762855907915
 40
0.0163762855907915
 40
0.0163762855907915
 10
1352.169637933
 20
-122.9790440562325
 30
0.0
 10
1352.168253240323
 20
-122.9788883549233
 30
0.0
 10
1352.165475626258
 20
-122.9785760419306
 30
0.0
 10
1352.161856537017
 20
-122.9781728670609
 30
0.0
 10
1352.158786829629
 20
-122.9778327787456
 30
0.0
 10
1352.156826102375
 20
-122.9776164847831
 30
0.0
 10
1352.155405530068
 20
-122.9774603641171
 30
0.0
 10
1352.154569127073
 20
-122.9773685741525
 30
0.0
 10
1352.153882221472
 20
-122.9772932436513
 30
0.0
 10
1352.153496372879
 20
-122.9772509477883
 30
0.0
 10
1352.153361749142
 20
-122.9772361972443
 30
0.0
 11
1352.169637933
 21
-122.9790440562325
 31
0.0
 11
1352.165483775215
 21
-122.9785776640519
 31
0.0
 11
1352.161304555749
 21
-122.9781118981924
 31
0.0
 11
1352.158780916321
 21
-122.9778323142196
 31
0.0
 11
1352.156274818384
 21
-122.9775559185012
 31
0.0
 11
1352.155422460737
 21
-122.9774622362732
 31
0.0
 11
1352.154519292416
 21
-122.9773631077306
 31
0.0
 11
1352.153765619769
 21
-122.977280454259
 31
0.0
 11
1352.153361749142
 21
-122.9772361972443
 31
0.0
  0
SPLINE
  5
29F
330
1F
100
AcDbEntity
  8
0
  6
Continuous
 62
     7
100
AcDbSpline
210
0.0
220
0.0
230
1.0
 70
     8
 71
     3
 72
    33
 73
    29
 74
    27
 42
0.000000001
 43
0.0000000001
 44
0.00000001
 40
0.0
 40
0.0
 40
0.0
 40
0.0
 40
0.7177177241811181
 40
1.333338352324435
 40
1.667027707678313
 40
2.000735756213715
 40
2.317447509080793
 40
2.672144735351678
 40
3.284746185217781
 40
3.806037183102443
 40
4.420987699163776
 40
4.936196243662914
 40
5.505059068536546
 40
6.073435401465799
 40
6.598746808148887
 40
7.221456198413215
 40
7.541753528324751
 40
7.892392462967672
 40
8.248698985838748
 40
8.567087752832007
 40
8.899153949508515
 40
9.231505234201125
 40
9.391678015526479
 40
9.546233028288835
 40
9.64243639634556
 40
9.738759576329974
 40
9.793009619971711
 40
9.847288368768428
 40
9.847288368768428
 40
9.847288368768428
 40
9.847288368768428
 10
1357.466105288949
 20
-130.0785815184458
 30
0.0
 10
1357.501772935483
 20
-129.8416236057129
 30
0.0
 10
1357.568034404982
 20
-129.4014156193604
 30
0.0
 10
1357.558817479741
 20
-128.8436471416958
 30
0.0
 10
1357.518494425349
 20
-128.4178256946988
 30
0.0
 10
1357.467605139339
 20
-128.0935186753041
 30
0.0
 10
1357.397170647001
 20
-127.7658117207667
 30
0.0
 10
1357.283514658678
 20
-127.352939271413
 30
0.0
 10
1357.113912558551
 20
-126.8856752705424
 30
0.0
 10
1356.866696238888
 20
-126.3571162482239
 30
0.0
 10
1356.590684560519
 20
-125.8798467626088
 30
0.0
 10
1356.266564332705
 20
-125.4147986126404
 30
0.0
 10
1355.916019712688
 20
-124.9890677830431
 30
0.0
 10
1355.52852716142
 20
-124.591926271906
 30
0.0
 10
1355.096298535837
 20
-124.2162285644709
 30
0.0
 10
1354.699314523739
 20
-123.9284533416348
 30
0.0
 10
1354.331984388271
 20
-123.702288242241
 30
0.0
 10
1354.03081832603
 20
-123.5389344685945
 30
0.0
 10
1353.721042037695
 20
-123.3940326839265
 30
0.0
 10
1353.409123408498
 20
-123.2697719214948
 30
0.0
 10
1353.09810361872
 20
-123.166255342741
 30
0.0
 10
1352.832341452952
 20
-123.0953703322438
 30
0.0
 10
1352.621570836395
 20
-123.0494290544152
 30
0.0
 10
1352.4869059497
 20
-123.0242484130065
 30
0.0
 10
1352.372702526417
 20
-123.0057013041186
 30
0.0
 10
1352.291270122304
 20
-122.9940365543509
 30
0.0
 10
1352.223547593515
 20
-122.9852850650101
 30
0.0
 10
1352.187610988733
 20
-122.9811247545173
 30
0.0
 10
1352.169637933
 20
-122.9790440562325
 30
0.0
 11
1357.466105288949
 21
-130.0785815184458
 31
0.0
 11
1357.551772779201
 21
-129.3659948120367
 31
0.0
 11
1357.546919032179
 21
-128.7503933173557
 31
0.0
 11
1357.515111051288
 21
-128.4182234232976
 31
0.0
 11
1357.463581924025
 21
-128.0885177804317
 31
0.0
 11
1357.39707757323
 21
-127.7788671613576
 31
0.0
 11
1357.30303742731
 21
-127.4368633990671
 31
0.0
 11
1357.094432317114
 21
-126.8608734299271
 31
0.0
 11
1356.873772064516
 21
-126.3885881800128
 31
0.0
 11
1356.566105596225
 21
-125.8561358524804
 31
0.0
 11
1356.271567879736
 21
-125.4334215547596
 31
0.0
 11
1355.909959529652
 21
-124.9942811282571
 31
0.0
 11
1355.512951025851
 21
-124.5875430019959
 31
0.0
 11
1355.116368332265
 21
-124.2430517235372
 31
0.0
 11
1354.611967043185
 21
-123.8778855637777
 31
0.0
 11
1354.339188639761
 21
-123.7100096506834
 31
0.0
 11
1354.030924605781
 21
-123.5429140256384
 31
0.0
 11
1353.708137092701
 21
-123.3920413648995
 31
0.0
 11
1353.412326626927
 21
-123.2742806947701
 31
0.0
 11
1353.097225445929
 21
-123.1694989933149
 31
0.0
 11
1352.776079734369
 21
-123.0839255810949
 31
0.0
 11
1352.619579551178
 21
-123.0498226081778
 31
0.0
 11
1352.467656802327
 21
-123.021419602412
 31
0.0
 11
1352.372696520579
 21
-123.0060042470937
 31
0.0
 11
1352.277349175324
 21
-122.9923280201785
 31
0.0
 11
1352.223542644388
 21
-122.9854052569582
 31
0.0
 11
1352.169637933
 21
-122.9790440562325
 31
0.0
  0
SPLINE
  5
2A0
330
1F
100
AcDbEntity
  8
0
  6
Continuous
 62
     7
100
AcDbSpline
210
0.0
220
0.0
230
1.0
 70
     8
 71
     3
 72
     9
 73
     5
 74
     3
 42
0.000000001
 43
0.0000000001
 44
0.00000001
 40
0.0
 40
0.0
 40
0.0
 40
0.0
 40
0.1626448992032832
 40
0.3247670877768263
 40
0.3247670877768263
 40
0.3247670877768263
 40
0.3247670877768263
 10
1351.829607266369
 20
-122.9521329887725
 30
0.0
 10
1351.883752869686
 20
-122.9550385000676
 30
0.0
 10
1351.991870060975
 20
-122.9608402048292
 30
0.0
 10
1352.099588977965
 20
-122.9717767272308
 30
0.0
 10
1352.153361749142
 20
-122.9772361972443
 30
0.0
 11
1351.829607266369
 21
-122.9521329887725
 31
0.0
 11
1351.99194418636
 21
-122.9621373726313
 31
0.0
 11
1352.153361749142
 21
-122.9772361972443
 31
0.0
  0
SPLINE
  5
2A1
330
1F
100
AcDbEntity
  8
0
  6
Continuous
 62
     7
100
AcDbSpline
210
0.0
220
0.0
230
1.0
 70
     8
 71
     3
 72
    23
 73
    19
 74
    17
 42
0.000000001
 43
0.0000000001
 44
0.00000001
 40
0.0
 40
0.0
 40
0.0
 40
0.0
 40
0.9062778338926087
 40
1.687820265223336
 40
2.53059170807292
 40
3.373838186963038
 40
4.848308353726521
 40
6.319849327072998
 40
6.952266347113371
 40
7.694688350384595
 40
8.332106925334294
 40
9.073053114964546
 40
9.9150929549687
 40
10.74966452136609
 40
11.58753464222126
 40
12.42341322599281
 40
12.52516365542826
 40
12.62697694357191
 40
12.62697694357191
 40
12.62697694357191
 40
12.62697694357191
 10
919.0332738040887
 20
-116.152583157792
 30
0.0
 10
919.0226148768797
 20
-115.8503037912699
 30
0.0
 10
919.0027640482496
 20
-115.2873492306182
 30
0.0
 10
918.8530773626619
 20
-114.4549095021679
 30
0.0
 10
918.6322136635193
 20
-113.6614224982679
 30
0.0
 10
918.2463422799567
 20
-112.6793137222352
 30
0.0
 10
917.6303954017143
 20
-111.5697731058656
 30
0.0
 10
916.8874061659928
 20
-110.6295036032011
 30
0.0
 10
916.2170956043975
 20
-109.957209909536
 30
0.0
 10
915.7079073924468
 20
-109.5192631708017
 30
0.0
 10
915.136758516356
 20
-109.101665622431
 30
0.0
 10
914.5048569092967
 20
-108.7144084189316
 30
0.0
 10
913.7784106665247
 20
-108.3619722230256
 30
0.0
 10
912.9868241428995
 20
-108.0809950099325
 30
0.0
 10
912.1695752310768
 20
-107.8952046965381
 30
0.0
 10
911.5786794875094
 20
-107.8374036911017
 30
0.0
 10
911.2323019342421
 20
-107.8287893327471
 30
0.0
 10
911.164445965458
 20
-107.8284701800436
 30
0.0
 10
911.13050750434
 20
-107.8283105614864
 30
0.0
 11
919.0332738040887
 21
-116.152583157792
 31
0.0
 11
918.978235921346
 21
-115.2479780819468
 31
0.0
 11
918.8452840049098
 21
-114.4778272136973
 31
0.0
 11
918.6185290261186
 21
-113.6661339933238
 31
0.0
 11
918.3109973983131
 21
-112.8809659086388
 31
0.0
 11
917.5966522202876
 21
-111.5910925673628
 31
0.0
 11
916.6844988683941
 21
-110.4363592228117
 31
0.0
 11
916.2378966392847
 21
-109.9885894873184
 31
0.0
 11
915.6748391259986
 21
-109.5046921143179
 31
0.0
 11
915.1601358458222
 21
-109.1286828417064
 31
0.0
 11
914.528112958289
 21
-108.741968055762
 31
0.0
 11
913.7701092686975
 21
-108.3752781337021
 31
0.0
 11
912.9832797409166
 21
-108.0970534151986
 31
0.0
 11
912.1659944400659
 21
-107.9124698913501
 31
0.0
 11
911.3340382720984
 21
-107.8315875650974
 31
0.0
 11
911.2323174845267
 21
-107.8291316023292
 31
0.0
 11
911.13050750434
 21
-107.8283105614864
 31
0.0
  0
SPLINE
  5
2A2
330
1F
100
AcDbEntity
  8
0
  6
Continuous
 62
     7
100
AcDbSpline
210
0.0
220
0.0
230
1.0
 70
     8
 71
     3
 72
    15
 73
    11
 74
     9
 42
0.000000001
 43
0.0000000001
 44
0.00000001
 40
0.0
 40
0.0
 40
0.0
 40
0.0
 40
1.372021433384875
 40
2.74387348950585
 40
4.11559591250543
 40
5.487248178726645
 40
6.858900444947912
 40
8.230622867947261
 40
9.60247492406802
 40
10.97449635745321
 40
10.97449635745321
 40
10.97449635745321
 40
10.97449635745321
 10
933.664203411966
 20
-284.5426641493819
 30
0.0
 10
933.638168768101
 20
-285.0007376722311
 30
0.0
 10
933.5861026799773
 20
-285.9168281669199
 30
0.0
 10
933.1700956603254
 20
-287.2380958958061
 30
0.0
 10
932.523478592505
 20
-288.4557886878981
 30
0.0
 10
931.6466141986316
 20
-289.5226762108765
 30
0.0
 10
930.5797266756535
 20
-290.3995406047497
 30
0.0
 10
929.3620338835613
 20
-291.0461576725702
 30
0.0
 10
928.0407661546753
 20
-291.4621646922214
 30
0.0
 10
927.1246756599865
 20
-291.5142307803457
 30
0.0
 10
926.6666021371371
 20
-291.5402654242109
 30
0.0
 11
933.664203411966
 21
-284.5426641493819
 31
0.0
 11
933.5297709301417
 21
-285.9080837648235
 31
0.0
 11
933.1316364448375
 21
-287.2208925860038
 31
0.0
 11
932.4850855003268
 21
-288.4306835953954
 31
0.0
 11
931.6149442241336
 21
-289.4910062363784
 31
0.0
 11
930.5546215831506
 21
-290.3611475125715
 31
0.0
 11
929.3448305737592
 21
-291.0076984570819
 31
0.0
 11
928.032021752579
 21
-291.4058329423862
 31
0.0
 11
926.6666021371371
 21
-291.5402654242109
 31
0.0
  0
SPLINE
  5
2A3
330
1F
100
AcDbEntity
  8
0
  6
Continuous
 62
     7
100
AcDbSpline
210
0.0
220
0.0
230
1.0
 70
     8
 71
     3
 72
    15
 73
    11
 74
     9
 42
0.000000001
 43
0.0000000001
 44
0.00000001
 40
0.0
 40
0.0
 40
0.0
 40
0.0
 40
1.37202143338482
 40
2.743873489505828
 40
4.115595912505264
 40
5.487248178726512
 40
6.858900444947743
 40
8.230622867947227
 40
9.60247492406809
 40
10.97449635745294
 40
10.97449635745294
 40
10.97449635745294
 40
10.97449635745294
 10
588.6642034119242
 20
-114.537866699025
 30
0.0
 10
588.6902380557896
 20
-114.0797931761758
 30
0.0
 10
588.7423041439134
 20
-113.163702681487
 30
0.0
 10
589.1583111635653
 20
-111.842434952601
 30
0.0
 10
589.8049282313854
 20
-110.6247421605088
 30
0.0
 10
590.6817926252586
 20
-109.5578546375304
 30
0.0
 10
591.7486801482373
 20
-108.6809902436574
 30
0.0
 10
592.9663729403292
 20
-108.0343731758367
 30
0.0
 10
594.2876406692154
 20
-107.6183661561856
 30
0.0
 10
595.2037311639041
 20
-107.5663000680613
 30
0.0
 10
595.6618046867533
 20
-107.5402654241961
 30
0.0
 11
588.6642034119242
 21
-114.537866699025
 31
0.0
 11
588.798635893749
 21
-113.1724470835835
 31
0.0
 11
589.1967703790533
 21
-111.8596382624032
 31
0.0
 11
589.8433213235637
 21
-110.6498472530116
 31
0.0
 11
590.7134625997569
 21
-109.5895246120286
 31
0.0
 11
591.7737852407399
 21
-108.7193833358355
 31
0.0
 11
592.9835762501315
 21
-108.0728323913251
 31
0.0
 11
594.2963850713118
 21
-107.6746979060208
 31
0.0
 11
595.6618046867533
 21
-107.5402654241961
 31
0.0
  0
SPLINE
  5
2A4
330
1F
100
AcDbEntity
  8
0
  6
Continuous
 62
     2
100
AcDbSpline
210
0.0
220
0.0
230
1.0
 70
     8
 71
     3
 72
    32
 73
    28
 74
    26
 42
0.000000001
 43
0.0000000001
 44
0.00000001
 40
0.0
 40
0.0
 40
0.0
 40
0.0
 40
0.4371466649283193
 40
0.9269702935474728
 40
1.033826343641431
 40
1.153810987749348
 40
1.273191052183062
 40
1.3738907843087
 40
1.569904838561597
 40
1.79094523723099
 40
2.530114023276263
 40
3.270529643361892
 40
3.70430496311582
 40
4.090991311515956
 40
4.491796904932308
 40
4.852409045002334
 40
5.312487507868693
 40
5.722738446852115
 40
6.113885361222303
 40
6.539706087072593
 40
6.986329953262598
 40
7.490255039190192
 40
8.047589685561457
 40
8.08895383916389
 40
8.130211670304353
 40
8.171496467577109
 40
8.212821691879489
 40
8.212821691879489
 40
8.212821691879489
 40
8.212821691879489
 10
597.8769493387842
 20
-122.9485893521537
 30
0.0
 10
597.7312184118972
 20
-122.9511871451977
 30
0.0
 10
597.422195718352
 20
-122.9566957854905
 30
0.0
 10
597.0787902019068
 20
-122.9902403217743
 30
0.0
 10
596.8420313799891
 20
-123.0220034435572
 30
0.0
 10
596.7278984580344
 20
-123.0391549565847
 30
0.0
 10
596.6160838156552
 20
-123.0578055487268
 30
0.0
 10
596.4796289858551
 20
-123.0826677876304
 30
0.0
 10
596.3104719542944
 20
-123.1170158212487
 30
0.0
 10
595.9350566958715
 20
-123.2043590980261
 30
0.0
 10
595.3914430342844
 20
-123.3687452698221
 30
0.0
 10
594.8014793808956
 20
-123.6139611302392
 30
0.0
 10
594.3381499903181
 20
-123.8512638003787
 30
0.0
 10
593.9864992889715
 20
-124.0567239802648
 30
0.0
 10
593.6666353226615
 20
-124.2671885506331
 30
0.0
 10
593.3383192477577
 20
-124.5082549469581
 30
0.0
 10
593.0213082093107
 20
-124.7691970579615
 30
0.0
 10
592.7127191327394
 20
-125.0551374703386
 30
0.0
 10
592.4279529496462
 20
-125.3490788059024
 30
0.0
 10
592.1517791413152
 20
-125.6674025080349
 30
0.0
 10
591.8717629172576
 20
-126.0311777901889
 30
0.0
 10
591.5909685488941
 20
-126.4484948503916
 30
0.0
 10
591.4077788198165
 20
-126.7675964621791
 30
0.0
 10
591.3090521212217
 20
-126.9566926872209
 30
0.0
 10
591.2901454206119
 20
-126.9934137420228
 30
0.0
 10
591.2714231436631
 20
-127.0302146820211
 30
0.0
 10
591.259133634211
 20
-127.0548569622584
 30
0.0
 10
591.2529858789474
 20
-127.0671841352671
 30
0.0
 11
597.8769493387842
 21
-122.9485893521537
 31
0.0
 11
597.4400037466061
 21
-122.9618466718273
 31
0.0
 11
596.9523067615426
 21
-123.0074409538686
 31
0.0
 11
596.8464042390217
 21
-123.0216842396468
 31
0.0
 11
596.7277502365419
 21
-123.039503963184
 31
0.0
 11
596.6099974507299
 21
-123.0591478234492
 31
0.0
 11
596.5109286110236
 21
-123.0771977838072
 31
0.0
 11
596.318834666483
 21
-123.1162032450489
 31
0.0
 11
596.1035445438539
 21
-123.1662933740913
 31
0.0
 11
595.3960203324691
 21
-123.3802559537744
 31
0.0
 11
594.7122994005107
 21
-123.664405524334
 31
0.0
 11
594.3262132033101
 21
-123.862138871492
 31
0.0
 11
593.9923377037699
 21
-124.0572118911752
 31
0.0
 11
593.6575091825011
 21
-124.2775184621746
 31
0.0
 11
593.3668360349205
 21
-124.4909434770375
 31
0.0
 11
593.0116157019353
 21
-124.7833314166554
 31
0.0
 11
592.7106885066161
 21
-125.062165876884
 31
0.0
 11
592.4385230446967
 21
-125.343096242097
 31
0.0
 11
592.159467758382
 21
-125.6647349181166
 31
0.0
 11
591.8870358802885
 21
-126.0186469832502
 31
0.0
 11
591.6057185800171
 21
-126.4367391610506
 31
0.0
 11
591.3282134894627
 21
-126.9200742776203
 31
0.0
 11
591.3090705603854
 21
-126.9567422678644
 31
0.0
 11
591.2901792423849
 21
-126.9934209645646
 31
0.0
 11
591.2714783881705
 21
-127.0302273855197
 31
0.0
 11
591.2529858789474
 21
-127.0671841352671
 31
0.0
  0
SPLINE
  5
2A5
330
1F
100
AcDbEntity
  8
0
  6
Continuous
 62
     2
100
AcDbSpline
210
0.0
220
0.0
230
1.0
 70
     8
 71
     3
 72
    35
 73
    31
 74
    29
 42
0.000000001
 43
0.0000000001
 44
0.00000001
 40
0.0
 40
0.0
 40
0.0
 40
0.0
 40
0.437146665867403
 40
0.9269702935145907
 40
1.033826343366435
 40
1.153810987714814
 40
1.27319105233518
 40
1.373890784276877
 40
1.569904838948825
 40
1.790945237194928
 40
2.530114023298089
 40
3.270529643293294
 40
3.704304963795892
 40
4.090991311469089
 40
4.491796905216404
 40
4.852409044970532
 40
5.312487506558393
 40
5.722738446779346
 40
6.113885359116923
 40
6.539706086939598
 40
6.940348106408828
 40
7.312451689978213
 40
7.511355423724694
 40
7.684365785064101
 40
7.875952173648836
 40
8.047775956924735
 40
8.089140038121085
 40
8.130397941701188
 40
8.171682738984224
 40
8.21300796329578
 40
8.21300796329578
 40
8.21300796329578
 40
8.21300796329578
 10
924.4514574851045
 20
-122.9485893521536
 30
0.0
 10
924.5971884123046
 20
-122.9511871452079
 30
0.0
 10
924.9062111058397
 20
-122.9566957855105
 30
0.0
 10
925.2496166221895
 20
-122.9902403218061
 30
0.0
 10
925.4863754437864
 20
-123.022003443541
 30
0.0
 10
925.6005083658029
 20
-123.0391549565753
 30
0.0
 10
925.7123230082617
 20
-123.0578055487317
 30
0.0
 10
925.8487778381995
 20
-123.0826677876615
 30
0.0
 10
926.0179348696981
 20
-123.117015821271
 30
0.0
 10
926.3933501281384
 20
-123.2043590980655
 30
0.0
 10
926.9369637895423
 20
-123.3687452697617
 30
0.0
 10
927.5269274432944
 20
-123.6139611304762
 30
0.0
 10
927.9902568335256
 20
-123.8512638001662
 30
0.0
 10
928.3419075358851
 20
-124.0567239814635
 30
0.0
 10
928.6617714986219
 20
-124.2671885468191
 30
0.0
 10
928.9900875856757
 20
-124.5082549610216
 30
0.0
 10
929.3070985681431
 20
-124.7691969908434
 30
0.0
 10
929.6156878376448
 20
-125.0551376832169
 30
0.0
 10
929.9004533311178
 20
-125.3490780184692
 30
0.0
 10
930.166579945377
 20
-125.6558219231627
 30
0.0
 10
930.4113683130836
 20
-125.9718077967101
 30
0.0
 10
930.5962686066254
 20
-126.2379008145272
 30
0.0
 10
930.7299055841584
 20
-126.4468523433614
 30
0.0
 10
930.8271473986896
 20
-126.6075750921574
 30
0.0
 10
930.9159563581381
 20
-126.7627907120745
 30
0.0
 10
930.9801005319237
 20
-126.8815077778838
 30
0.0
 10
931.0193547575045
 20
-126.9566927253823
 30
0.0
 10
931.0382613747283
 20
-126.9934137045671
 30
0.0
 10
931.0569836846139
 20
-127.0302146859743
 30
0.0
 10
931.0692731911356
 20
-127.0548569635639
 30
0.0
 10
931.0754209449327
 20
-127.0671841352479
 30
0.0
 11
924.4514574851045
 21
-122.9485893521536
 31
0.0
 11
924.888403078222
 21
-122.9618466718837
 31
0.0
 11
925.3761000623168
 21
-123.0074409538649
 31
0.0
 11
925.4820025845984
 21
-123.0216842396087
 31
0.0
 11
925.6006565873168
 21
-123.0395039631792
 31
0.0
 11
925.7184093733131
 21
-123.0591478234762
 31
0.0
 11
925.8174782128386
 21
-123.0771977838021
 31
0.0
 11
926.0095721577896
 21
-123.1162032451321
 31
0.0
 11
926.224862280006
 21
-123.166293374084
 31
0.0
 11
926.9323864914492
 21
-123.3802559537849
 31
0.0
 11
927.6161074233279
 21
-123.6644055243103
 31
0.0
 11
928.0021936211889
 21
-123.8621388718274
 31
0.0
 11
928.3360691200952
 21
-124.0572118911605
 31
0.0
 11
928.6708976416395
 21
-124.2775184623503
 31
0.0
 11
928.9615707889649
 21
-124.4909434770349
 31
0.0
 11
929.3167911209941
 21
-124.7833314158147
 31
0.0
 11
929.6177183172532
 21
-125.062165876865
 31
0.0
 11
929.8898837778078
 21
-125.343096240591
 31
0.0
 11
930.1689390654784
 21
-125.664734918082
 31
0.0
 11
930.4143014454525
 21
-125.9814545582213
 31
0.0
 11
930.6266379895607
 21
-126.2870265941739
 31
0.0
 11
930.7338067071126
 21
-126.4545901980804
 31
0.0
 11
930.8233663694601
 21
-126.6026160474888
 31
0.0
 11
930.918512177869
 21
-126.7689068157438
 31
0.0
 11
931.0001933343889
 21
-126.9200742775491
 31
0.0
 11
931.0193362301354
 21
-126.9567422035153
 31
0.0
 11
931.0382275814837
 21
-126.9934209645245
 31
0.0
 11
931.0569284357038
 21
-127.0302273854903
 31
0.0
 11
931.0754209449327
 21
-127.0671841352479
 31
0.0
  0
SPLINE
  5
2A6
330
1F
100
AcDbEntity
  8
0
  6
Continuous
 62
     7
100
AcDbSpline
210
0.0
220
0.0
230
1.0
 70
     8
 71
     3
 72
    26
 73
    22
 74
    20
 42
0.000000001
 43
0.0000000001
 44
0.00000001
 40
0.0
 40
0.0
 40
0.0
 40
0.0
 40
0.0393627250058494
 40
0.0672879311445082
 40
0.0913070650872659
 40
0.1110504849731566
 40
0.13573464219711
 40
0.1686509933886133
 40
0.213152136831425
 40
0.2725861452270664
 40
0.3502818047449063
 40
0.3623478939767336
 40
0.3728719789313945
 40
0.3843206328083368
 40
0.395769286686439
 40
0.4186665944465352
 40
0.4415639022119593
 40
0.4873585177613456
 40
0.5331531333391959
 40
0.716331596089869
 40
0.8995100535050526
 40
0.8995100535050526
 40
0.8995100535050526
 40
0.8995100535050526
 10
918.9166493442243
 20
-117.0402654242035
 30
0.0
 10
918.9196091136608
 20
-117.0274642388059
 30
0.0
 10
918.9246686276316
 20
-117.0055814699369
 30
0.0
 10
918.9357400285433
 20
-116.9771425744039
 30
0.0
 10
918.9462096829152
 20
-116.9556633845582
 30
0.0
 10
918.9549795104897
 20
-116.9345765749054
 30
0.0
 10
918.9626507181682
 20
-116.9099245019019
 30
0.0
 10
918.970087767821
 20
-116.8766852846553
 30
0.0
 10
918.977374576787
 20
-116.8316350786077
 30
0.0
 10
918.9845505618033
 20
-116.7715068050837
 30
0.0
 10
918.9890155493624
 20
-116.7219702858457
 30
0.0
 10
918.991668467314
 20
-116.6886472033981
 30
0.0
 10
918.992542667585
 20
-116.6773346411818
 30
0.0
 10
918.9934058353135
 20
-116.6662276701276
 30
0.0
 10
918.9945867591763
 20
-116.6510085450517
 30
0.0
 10
918.9960635319106
 20
-116.6319846887689
 30
0.0
 10
918.9984260230088
 20
-116.601546490731
 30
0.0
 10
919.0013792548687
 20
-116.563498752727
 30
0.0
 10
919.0084669146067
 20
-116.4721841735
 30
0.0
 10
919.0190984398845
 20
-116.3352123092622
 30
0.0
 10
919.028548687198
 20
-116.2134595413709
 30
0.0
 10
919.0332738040887
 20
-116.152583157792
 30
0.0
 11
918.9166493442243
 21
-117.0402654242035
 31
0.0
 11
918.9265893202398
 21
-117.0021784054529
 31
0.0
 11
918.9365858378974
 21
-116.9761037671988
 31
0.0
 11
918.946597916933
 21
-116.9542708319607
 31
0.0
 11
918.9540925361758
 21
-116.9360051999617
 31
0.0
 11
918.9615555687457
 21
-116.9124762652659
 31
0.0
 11
918.9689697260944
 21
-116.8804057733117
 31
0.0
 11
918.9763177196741
 21
-116.8365154695375
 31
0.0
 11
918.9835822609201
 21
-116.7775270995275
 31
0.0
 11
918.9907460613318
 21
-116.7001624082664
 31
0.0
 11
918.9917042986755
 21
-116.6881344288143
 31
0.0
 11
918.992519659679
 21
-116.677641976773
 31
0.0
 11
918.9934056193403
 21
-116.6662276546213
 31
0.0
 11
918.9942915790012
 21
-116.6548133324696
 31
0.0
 11
918.9960634983233
 21
-116.6319846881661
 31
0.0
 11
918.9978354176454
 21
-116.6091560438626
 31
0.0
 11
919.00137925629
 21
-116.5634987552554
 31
0.0
 11
919.0049230949343
 21
-116.5178414666483
 31
0.0
 11
919.0190984495115
 21
-116.3352123122202
 31
0.0
 11
919.0332738040887
 21
-116.152583157792
 31
0.0
  0
SPLINE
  5
2A7
330
1F
100
AcDbEntity
  8
0
  6
Continuous
 62
     7
100
AcDbSpline
210
0.0
220
0.0
230
1.0
 70
     8
 71
     3
 72
    15
 73
    11
 74
     9
 42
0.000000001
 43
0.0000000001
 44
0.00000001
 40
0.0
 40
0.0
 40
0.0
 40
0.0
 40
1.565881899119245
 40
3.131773606030329
 40
4.770577547281472
 40
6.431779763682202
 40
7.998002790154738
 40
9.564380532400488
 40
11.13089746111431
 40
12.6975168678383
 40
12.6975168678383
 40
12.6975168678383
 40
12.6975168678383
 10
933.664203411966
 20
-130.158603363537
 30
0.0
 10
933.6320571201987
 20
-129.6370453291175
 30
0.0
 10
933.5677643209981
 20
-128.5939259949625
 30
0.0
 10
933.121882466249
 20
-127.043580047584
 30
0.0
 10
932.2043364878191
 20
-125.6821718115679
 30
0.0
 10
931.0768845487916
 20
-124.5149999207034
 30
0.0
 10
929.8584436513324
 20
-123.4681022589646
 30
0.0
 10
928.4614021362308
 20
-122.7366939722212
 30
0.0
 10
926.9543487523262
 20
-122.2600100953915
 30
0.0
 10
925.9080705181156
 20
-122.2008006938747
 30
0.0
 10
925.3849142895652
 20
-122.1711950320496
 30
0.0
 11
933.664203411966
 21
-130.158603363537
 31
0.0
 11
933.510660313162
 21
-128.6002675058741
 31
0.0
 11
933.0559318344142
 21
-127.1018553950061
 31
0.0
 11
932.1734653106814
 21
-125.7209385984454
 31
0.0
 11
931.0356566889028
 21
-124.5105732191079
 31
0.0
 11
929.8247100769306
 21
-123.5172641654257
 31
0.0
 11
928.4431301468057
 21
-122.7791746501663
 31
0.0
 11
926.9439984796502
 21
-122.3246644329244
 31
0.0
 11
925.3849142895652
 21
-122.1711950320496
 31
0.0
  0
SPLINE
  5
2A8
330
1F
100
AcDbEntity
  8
0
  6
Continuous
 62
     2
100
AcDbSpline
210
0.0
220
0.0
230
1.0
 70
     8
 71
     3
 72
    27
 73
    23
 74
    21
 42
0.000000001
 43
0.0000000001
 44
0.00000001
 40
0.0
 40
0.0
 40
0.0
 40
0.0
 40
0.2848455041438832
 40
0.5454646024650533
 40
0.823792191896255
 40
1.063640281818962
 40
1.37616283192486
 40
1.725083782759747
 40
2.025534784629423
 40
2.31493614778495
 40
2.479341988682375
 40
2.661499741415413
 40
2.807654062419572
 40
2.970755698155443
 40
3.104341058517374
 40
3.263992966388248
 40
3.384738788449252
 40
3.491134208830625
 40
3.526744927176844
 40
3.570308948068852
 40
3.607350751327851
 40
3.635450394320073
 40
3.635450394320073
 40
3.635450394320073
 40
3.635450394320073
 10
924.1642034119274
 20
-122.9485893549449
 30
0.0
 10
924.0692453075856
 20
-122.9472897477476
 30
0.0
 10
923.8874053845932
 20
-122.9448010521633
 30
0.0
 10
923.6133889234851
 20
-122.9249928372466
 30
0.0
 10
923.3554039923922
 20
-122.8953983912778
 30
0.0
 10
923.0819167615327
 20
-122.851566326885
 30
0.0
 10
922.7876800811651
 20
-122.7901795237882
 30
0.0
 10
922.4778411272264
 20
-122.7069037929018
 30
0.0
 10
922.1805832914966
 20
-122.6086911465642
 30
0.0
 10
921.9461800705747
 20
-122.5174329289676
 30
0.0
 10
921.7519211470992
 20
-122.4324996534503
 30
0.0
 10
921.6035657294727
 20
-122.3619564840324
 30
0.0
 10
921.4578399802926
 20
-122.2871095856537
 30
0.0
 10
921.3285529573865
 20
-122.2158178704003
 30
0.0
 10
921.1975365635556
 20
-122.1385006509986
 30
0.0
 10
921.0808237923604
 20
-122.0648225657505
 30
0.0
 10
920.9739604239694
 20
-121.992660684105
 30
0.0
 10
920.9027435246911
 20
-121.9416571325327
 30
0.0
 10
920.8531880685545
 20
-121.9046350472968
 30
0.0
 10
920.8224478098807
 20
-121.8810592623205
 30
0.0
 10
920.7939854586181
 20
-121.858631139832
 30
0.0
 10
920.7771694628199
 20
-121.8448934300048
 30
0.0
 10
920.7699156615394
 20
-121.8389674761718
 30
0.0
 11
924.1642034119274
 21
-122.9485893549449
 31
0.0
 11
923.8794390127015
 21
-122.9417925185004
 31
0.0
 11
923.6194514711179
 21
-122.9236599112087
 31
0.0
 11
923.3429615955607
 21
-122.891728824704
 31
0.0
 11
923.1061309932746
 21
-122.8538029583938
 31
0.0
 11
922.800204776125
 21
-122.7899320426464
 31
0.0
 11
922.4632535315656
 21
-122.6993247060249
 31
0.0
 11
922.17798310301
 21
-122.6050294902242
 31
0.0
 11
921.908316257034
 21
-122.4999916795755
 31
0.0
 11
921.7576835674275
 21
-122.43412003562
 31
0.0
 11
921.5931853153537
 21
-122.3558782814687
 31
0.0
 11
921.4631830031417
 21
-122.2890914230894
 31
0.0
 11
921.3203701974347
 21
-122.2103091522366
 31
0.0
 11
921.2053354013976
 21
-122.1423971189866
 31
0.0
 11
921.0703683807545
 21
-122.0571173728808
 31
0.0
 11
920.9703319148473
 21
-121.9894988912165
 31
0.0
 11
920.8838765821594
 21
-121.9274871106621
 31
0.0
 11
920.8553525764145
 21
-121.9061680030384
 31
0.0
 11
920.8207856992493
 21
-121.8796547070356
 31
0.0
 11
920.7917217286231
 21
-121.856689934557
 31
0.0
 11
920.7699156615394
 21
-121.8389674761718
 31
0.0
  0
SPLINE
  5
2A9
330
1F
100
AcDbEntity
  8
0
  6
Continuous
 62
     2
100
AcDbSpline
210
0.0
220
0.0
230
1.0
 70
     8
 71
     3
 72
    35
 73
    31
 74
    29
 42
0.000000001
 43
0.0000000001
 44
0.00000001
 40
0.0
 40
0.0
 40
0.0
 40
0.0
 40
0.4330916615747369
 40
0.8657679255693713
 40
1.298729766953009
 40
1.7326892348888
 40
1.928997290035166
 40
2.110474838660066
 40
2.282243350417659
 40
2.474170309039633
 40
2.804551801519337
 40
3.168777789236673
 40
3.483300808365685
 40
3.831693290495525
 40
3.872200013558425
 40
3.912915387278166
 40
3.933892640101189
 40
3.953376598754854
 40
3.973402160707757
 40
3.99323626734452
 40
4.075902386638301
 40
4.145538161390206
 40
4.28929476015944
 40
4.421549126282944
 40
4.664988352652689
 40
4.906209353558223
 40
5.01351464589294
 40
5.140992685746347
 40
5.248827390191092
 40
5.388142970197111
 40
5.388142970197111
 40
5.388142970197111
 40
5.388142970197111
 10
920.7699156615394
 20
-121.8389674761718
 30
0.0
 10
920.6606248905769
 20
-121.7445255725572
 30
0.0
 10
920.4421481840686
 20
-121.5557323378791
 30
0.0
 10
920.144864470859
 20
-121.2400425001879
 30
0.0
 10
919.8722168122955
 20
-120.9029489438627
 30
0.0
 10
919.672620050216
 20
-120.6095251297648
 30
0.0
 10
919.5337776846754
 20
-120.3772311971532
 30
0.0
 10
919.4454049854969
 20
-120.2167290878806
 30
0.0
 10
919.363051631126
 20
-120.0547018133066
 30
0.0
 10
919.2652848675855
 20
-119.8449647905631
 30
0.0
 10
919.153602145721
 20
-119.5711584338369
 30
0.0
 10
919.0469903119804
 20
-119.2518369659286
 30
0.0
 10
918.9593663951755
 20
-118.9206742769725
 30
0.0
 10
918.9135331896236
 20
-118.6905206813438
 30
0.0
 10
918.8906988955539
 20
-118.5491487588986
 30
0.0
 10
918.8855229199575
 20
-118.5154773080966
 30
0.0
 10
918.8815661396809
 20
-118.4887092718829
 30
0.0
 10
918.8786939396448
 20
-118.4687525757587
 30
0.0
 10
918.8759744830229
 20
-118.4491590865429
 30
0.0
 10
918.8705565876044
 20
-118.4086780700824
 30
0.0
 10
918.8636663635777
 20
-118.3517096029456
 30
0.0
 10
918.8536801413878
 20
-118.2535264876236
 30
0.0
 10
918.845101391923
 20
-118.1386016421366
 30
0.0
 10
918.8382385289286
 20
-117.9655606554334
 30
0.0
 10
918.8397744977938
 20
-117.7597975128011
 30
0.0
 10
918.8522323369136
 20
-117.5627826184065
 30
0.0
 10
918.8674202019038
 20
-117.4048366619935
 30
0.0
 10
918.8806147357691
 20
-117.2913877772233
 30
0.0
 10
918.8970428880403
 20
-117.1675903377891
 30
0.0
 10
918.9095814841079
 20
-117.0861642875667
 30
0.0
 10
918.9166493442243
 20
-117.0402654242035
 30
0.0
 11
920.7699156615394
 21
-121.8389674761718
 31
0.0
 11
920.4471230848884
 21
-121.5502230565063
 31
0.0
 11
920.1490625895127
 21
-121.2365852224715
 31
0.0
 11
919.877197688601
 21
-120.899620191417
 31
0.0
 11
919.6329918953392
 21
-120.5408941806926
 31
0.0
 11
919.5322849643235
 21
-120.372386119618
 31
0.0
 11
919.4447526020559
 21
-120.2134138381069
 31
0.0
 11
919.3669242401998
 21
-120.0602891575469
 31
0.0
 11
919.2858369347242
 21
-119.8863328226902
 31
0.0
 11
919.1610603759007
 21
-119.5804198591165
 31
0.0
 11
919.0457144947858
 21
-119.234940629154
 31
0.0
 11
918.9652628163944
 21
-118.9308810010441
 31
0.0
 11
918.8972195095304
 21
-118.5891977696293
 31
0.0
 11
918.8907605756758
 21
-118.5492093113468
 31
0.0
 11
918.8845743914047
 21
-118.5089666375966
 31
0.0
 11
918.8815070255258
 21
-118.4882148568286
 31
0.0
 11
918.8787355899811
 21
-118.4689290124867
 31
0.0
 11
918.8759818694521
 21
-118.4490936864996
 31
0.0
 11
918.8733509930095
 21
-118.4294348391937
 31
0.0
 11
918.863427330139
 21
-118.3473665247774
 31
0.0
 11
918.8563827670781
 21
-118.2780879907158
 31
0.0
 11
918.8456850096148
 21
-118.1347299850879
 31
0.0
 11
918.8404384880572
 21
-118.0025797242026
 31
0.0
 11
918.8420488688888
 21
-117.7591458237899
 31
0.0
 11
918.8568640307536
 21
-117.5183802064467
 31
0.0
 11
918.8671004150939
 21
-117.4115642795208
 31
0.0
 11
918.88174005384
 21
-117.2849296409065
 31
0.0
 11
918.895986122204
 21
-117.1780401040273
 31
0.0
 11
918.9166493442243
 21
-117.0402654242035
 31
0.0
  0
SPLINE
  5
2AA
330
1F
100
AcDbEntity
  8
0
  6
Continuous
 62
     7
100
AcDbSpline
210
0.0
220
0.0
230
1.0
 70
     8
 71
     3
 72
     9
 73
     5
 74
     3
 42
0.000000001
 43
0.0000000001
 44
0.00000001
 40
0.0
 40
0.0
 40
0.0
 40
0.0
 40
0.6390678786257599
 40
1.244579031737519
 40
1.244579031737519
 40
1.244579031737519
 40
1.244579031737519
 10
720.1786451594164
 20
-117.7638180884185
 30
0.0
 10
719.9545182585346
 20
-117.796663287715
 30
0.0
 10
719.5180331127901
 20
-117.8606290386714
 30
0.0
 10
719.3103073510429
 20
-118.247992724975
 30
0.0
 10
719.2092448596683
 20
-118.4364524645114
 30
0.0
 11
720.1786451594164
 21
-117.7638180884185
 31
0.0
 11
719.5665798210416
 21
-117.9476217312534
 31
0.0
 11
719.2092448596683
 21
-118.4364524645114
 31
0.0
  0
SPLINE
  5
2AB
330
1F
100
AcDbEntity
  8
0
  6
Continuous
 62
     7
100
AcDbSpline
210
0.0
220
0.0
230
1.0
 70
     8
 71
     3
 72
    11
 73
     7
 74
     5
 42
0.000000001
 43
0.0000000001
 44
0.00000001
 40
0.0
 40
0.0
 40
0.0
 40
0.0
 40
0.3365235255891277
 40
0.7086489004781413
 40
0.7251889916888873
 40
0.7418417613418402
 40
0.7418417613418402
 40
0.7418417613418402
 40
0.7418417613418402
 10
718.5951431406363
 20
-119.9419791109372
 30
0.0
 10
718.5328351104516
 20
-120.0352847394497
 30
0.0
 10
718.4016272702834
 20
-120.2317670657437
 30
0.0
 10
718.2533590129087
 20
-120.4229996908732
 30
0.0
 10
718.1676724578717
 20
-120.5274557892045
 30
0.0
 10
718.1606257222983
 20
-120.5359858966499
 30
0.0
 10
718.1570903883529
 20
-120.5402654242151
 30
0.0
 11
718.5951431406363
 21
-119.9419791109372
 31
0.0
 11
718.4051343283817
 21
-120.2197285201757
 31
0.0
 11
718.1781813990265
 21
-120.5146347138186
 31
0.0
 11
718.1676889422195
 21
-120.5274207598568
 31
0.0
 11
718.1570903883529
 21
-120.5402654242151
 31
0.0
  0
SPLINE
  5
2AC
330
1F
100
AcDbEntity
  8
0
  6
Continuous
 62
     7
100
AcDbSpline
210
0.0
220
0.0
230
1.0
 70
     8
 71
     3
 72
    15
 73
    11
 74
     9
 42
0.000000001
 43
0.0000000001
 44
0.00000001
 40
0.0
 40
0.0
 40
0.0
 40
0.0
 40
0.1241463054074048
 40
0.3058215477716423
 40
0.5277754063576778
 40
0.7726694977470866
 40
1.02312428738492
 40
1.261750781437133
 40
1.471179754605382
 40
1.634100018780818
 40
1.634100018780818
 40
1.634100018780818
 40
1.634100018780818
 10
719.2092448596683
 20
-118.4364524645114
 30
0.0
 10
719.2008457794492
 20
-118.4769807543496
 30
0.0
 10
719.180155495115
 20
-118.5768179881951
 30
0.0
 10
719.1334250093821
 20
-118.7465425924501
 30
0.0
 10
719.0681795011301
 20
-118.9526817603568
 30
0.0
 10
718.9848140132508
 20
-119.1768934538705
 30
0.0
 10
718.888590970407
 20
-119.4019504583664
 30
0.0
 10
718.7864004446442
 20
-119.6112364682135
 30
0.0
 10
718.6893684895451
 20
-119.7904315430187
 30
0.0
 10
718.6238225643593
 20
-119.8958524991445
 30
0.0
 10
718.5951431406363
 20
-119.9419791109372
 30
0.0
 11
719.2092448596683
 21
-118.4364524645114
 31
0.0
 11
719.1829949511913
 21
-118.5577918542619
 31
0.0
 11
719.1360048632655
 21
-118.7332849490696
 31
0.0
 11
719.0688397230502
 21
-118.9448324820072
 31
0.0
 11
718.9836589949082
 21
-119.1744350944518
 31
0.0
 11
718.885090880834
 21
-119.4046782908799
 31
0.0
 11
718.780538161771
 21
-119.6191808141947
 31
0.0
 11
718.6799539680675
 21
-119.8028743451709
 31
0.0
 11
718.5951431406363
 21
-119.9419791109372
 31
0.0
  0
SPLINE
  5
2AD
330
1F
100
AcDbEntity
  8
0
  6
Continuous
 62
     7
100
AcDbSpline
210
0.0
220
0.0
230
1.0
 70
     8
 71
     3
 72
     9
 73
     5
 74
     3
 42
0.000000001
 43
0.0000000001
 44
0.00000001
 40
0.0
 40
0.0
 40
0.0
 40
0.0
 40
0.6055111531118389
 40
1.244579031737193
 40
1.244579031737193
 40
1.244579031737193
 40
1.244579031737193
 10
708.1191619641822
 20
-118.4364524645113
 30
0.0
 10
708.0180994728072
 20
-118.2479927249752
 30
0.0
 10
707.810373711059
 20
-117.8606290386721
 30
0.0
 10
707.3738885653156
 20
-117.7966632877152
 30
0.0
 10
707.1497616644339
 20
-117.7638180884184
 30
0.0
 11
708.1191619641822
 21
-118.4364524645113
 31
0.0
 11
707.7618270028081
 21
-117.9476217312538
 31
0.0
 11
707.1497616644339
 21
-117.7638180884184
 31
0.0
  0
SPLINE
  5
2AE
330
1F
100
AcDbEntity
  8
0
  6
Continuous
 62
     7
100
AcDbSpline
210
0.0
220
0.0
230
1.0
 70
     8
 71
     3
 72
    15
 73
    11
 74
     9
 42
0.000000001
 43
0.0000000001
 44
0.00000001
 40
0.0
 40
0.0
 40
0.0
 40
0.0
 40
0.1629202657948193
 40
0.3723492423308467
 40
0.610975740981345
 40
0.8614305358593108
 40
1.106324632631811
 40
1.328278496247995
 40
1.509953742691748
 40
1.634100050789231
 40
1.634100050789231
 40
1.634100050789231
 40
1.634100050789231
 10
708.7332636957028
 20
-119.9419791408428
 30
0.0
 10
708.7045842732016
 20
-119.895852527676
 30
0.0
 10
708.639038350581
 20
-119.7904315680457
 30
0.0
 10
708.5420063910087
 20
-119.6112364921636
 30
0.0
 10
708.439815862943
 20
-119.4019504784576
 30
0.0
 10
708.3435928169913
 20
-119.1768934698013
 30
0.0
 10
708.2602273266311
 20
-118.9526817716237
 30
0.0
 10
708.1949818164732
 20
-118.7465425992542
 30
0.0
 10
708.1482513294252
 20
-118.5768179912738
 30
0.0
 10
708.1275610445977
 20
-118.4769807552251
 30
0.0
 10
708.1191619641822
 20
-118.4364524645113
 30
0.0
 11
708.7332636957028
 21
-119.9419791408428
 31
0.0
 11
708.6484528709408
 21
-119.8028743715526
 31
0.0
 11
708.5478686746568
 21
-119.6191808381496
 31
0.0
 11
708.4433159525341
 21
-119.4046783112109
 31
0.0
 11
708.3447478354577
 21
-119.1744351103679
 31
0.0
 11
708.259567104722
 21
-118.9448324931439
 31
0.0
 11
708.1924019625214
 21
-118.733284955559
 31
0.0
 11
708.1454118732905
 21
-118.5577918568775
 31
0.0
 11
708.1191619641822
 21
-118.4364524645113
 31
0.0
  0
SPLINE
  5
2AF
330
1F
100
AcDbEntity
  8
0
  6
Continuous
 62
     7
100
AcDbSpline
210
0.0
220
0.0
230
1.0
 70
     8
 71
     3
 72
    26
 73
    22
 74
    20
 42
0.000000001
 43
0.0000000001
 44
0.00000001
 40
0.0
 40
0.0
 40
0.0
 40
0.0
 40
0.1831784574149502
 40
0.3663569201653932
 40
0.4121515357431868
 40
0.4579461512923289
 40
0.4808434590578096
 40
0.5037407668179483
 40
0.5151894206960275
 40
0.5266380745730831
 40
0.5371621595464666
 40
0.5492282487594813
 40
0.6269239081865228
 40
0.6863579166728943
 40
0.7308590601183785
 40
0.7637754113107458
 40
0.7884595685338791
 40
0.8082029884173662
 40
0.8322221223599688
 40
0.8601473284985578
 40
0.8995100535045147
 40
0.8995100535045147
 40
0.8995100535045147
 40
0.8995100535045147
 10
603.2951330198274
 20
-116.1525831577921
 30
0.0
 10
603.2998581367176
 20
-116.2134595413709
 30
0.0
 10
603.3093083840315
 20
-116.335212309262
 30
0.0
 10
603.3199399093085
 20
-116.4721841734998
 30
0.0
 10
603.3270275690469
 20
-116.5634987527266
 30
0.0
 10
603.329980800906
 20
-116.6015464907305
 30
0.0
 10
603.3323432920047
 20
-116.6319846887684
 30
0.0
 10
603.3338200647389
 20
-116.6510085450512
 30
0.0
 10
603.3350009886012
 20
-116.6662276701271
 30
0.0
 10
603.3358641563312
 20
-116.6773346411876
 30
0.0
 10
603.336738356601
 20
-116.6886472034039
 30
0.0
 10
603.3393912745523
 20
-116.7219702858212
 30
0.0
 10
603.3438562621086
 20
-116.771506805053
 30
0.0
 10
603.3510322471229
 20
-116.8316350785782
 30
0.0
 10
603.3583190560937
 20
-116.8766852846569
 30
0.0
 10
603.3657561057471
 20
-116.9099245019043
 30
0.0
 10
603.3734273134254
 20
-116.934576574907
 30
0.0
 10
603.3821971409993
 20
-116.9556633845589
 30
0.0
 10
603.3926667953708
 20
-116.9771425744038
 30
0.0
 10
603.4037381962819
 20
-117.0055814699369
 30
0.0
 10
603.4087977102523
 20
-117.0274642388059
 30
0.0
 10
603.4117574796891
 20
-117.0402654242036
 30
0.0
 11
603.2951330198274
 21
-116.1525831577921
 31
0.0
 11
603.3093083744042
 21
-116.3352123122201
 31
0.0
 11
603.3234837289812
 21
-116.517841466648
 31
0.0
 11
603.3270275676255
 21
-116.563498755255
 31
0.0
 11
603.3305714062698
 21
-116.609156043862
 31
0.0
 11
603.3323433255919
 21
-116.6319846881655
 31
0.0
 11
603.334115244914
 21
-116.6548133324691
 31
0.0
 11
603.3350012045748
 21
-116.6662276546208
 31
0.0
 11
603.335887164236
 21
-116.6776419767726
 31
0.0
 11
603.336702525241
 21
-116.6881344288326
 31
0.0
 11
603.3376607625834
 21
-116.7001624082659
 31
0.0
 11
603.3448245629853
 21
-116.7775270994367
 31
0.0
 11
603.3520891042406
 21
-116.836515469537
 31
0.0
 11
603.3594370978204
 21
-116.8804057733139
 31
0.0
 11
603.3668512551696
 21
-116.9124762652688
 31
0.0
 11
603.3743142877394
 21
-116.9360051999638
 31
0.0
 11
603.3818089069811
 21
-116.9542708319607
 31
0.0
 11
603.3918209860167
 21
-116.9761037671986
 31
0.0
 11
603.4018175036738
 21
-117.0021784054528
 31
0.0
 11
603.4117574796891
 21
-117.0402654242036
 31
0.0
  0
SPLINE
  5
2B0
330
1F
100
AcDbEntity
  8
0
  6
Continuous
 62
     7
100
AcDbSpline
210
0.0
220
0.0
230
1.0
 70
     8
 71
     3
 72
    11
 73
     7
 74
     5
 42
0.000000001
 43
0.0000000001
 44
0.00000001
 40
0.0
 40
0.0
 40
0.0
 40
0.0
 40
0.1503307745824022
 40
0.3113893214540105
 40
0.4827190128092707
 40
0.6638055835212278
 40
0.6638055835212278
 40
0.6638055835212278
 40
0.6638055835212278
 10
590.4859155011026
 20
-130.3116830324706
 30
0.0
 10
590.4887157806635
 20
-130.261650250187
 30
0.0
 10
590.4945161860962
 20
-130.1580142911995
 30
0.0
 10
590.506294347158
 20
-129.9975331134551
 30
0.0
 10
590.521203168485
 20
-129.8270129123716
 30
0.0
 10
590.5341862027586
 20
-129.7102566423604
 30
0.0
 10
590.5408574494677
 20
-129.6502622705373
 30
0.0
 11
590.4859155011026
 21
-130.3116830324706
 31
0.0
 11
590.4947352608618
 21
-130.161611204183
 31
0.0
 11
590.5064054861829
 21
-130.0009760230695
 31
0.0
 11
590.5215699606239
 21
-129.8303187586115
 31
0.0
 11
590.5408574494677
 21
-129.6502622705373
 31
0.0
  0
SPLINE
  5
2B1
330
1F
100
AcDbEntity
  8
0
  6
Continuous
 62
     7
100
AcDbSpline
210
0.0
220
0.0
230
1.0
 70
     8
 71
     3
 72
    41
 73
    37
 74
    35
 42
0.000000001
 43
0.0000000001
 44
0.00000001
 40
0.0
 40
0.0
 40
0.0
 40
0.0
 40
0.046503486719193
 40
0.0938601738536893
 40
0.2329619917866706
 40
0.3799863957803091
 40
0.537981943434519
 40
0.6823825282952388
 40
0.8261054707545443
 40
0.9952529068368589
 40
1.064312288629487
 40
1.154703491415882
 40
1.18909571559003
 40
1.235272615606132
 40
1.277057828246198
 40
1.316257047728467
 40
1.386750496885719
 40
1.477250929186235
 40
1.561935362585882
 40
1.638523433706578
 40
1.706811182742183
 40
1.799178018520887
 40
1.818667182994113
 40
1.839142776636014
 40
1.855306442887856
 40
1.879001621907344
 40
1.917178062311127
 40
1.958350381586048
 40
1.994384185537053
 40
2.052544017928488
 40
2.099634143049942
 40
2.146234495766389
 40
2.234851106385164
 40
2.331467843710971
 40
2.52178088011073
 40
2.687305789826706
 40
2.687305789826706
 40
2.687305789826706
 40
2.687305789826706
 10
591.2529858789474
 20
-127.0671841352671
 30
0.0
 10
591.2466784308641
 20
-127.0813441601661
 30
0.0
 10
591.2339478312304
 20
-127.1099240127571
 30
0.0
 10
591.203227410145
 20
-127.181244665415
 30
0.0
 10
591.1610123495022
 20
-127.2840906260339
 30
0.0
 10
591.107964193731
 20
-127.4223119108768
 30
0.0
 10
591.0570658291958
 20
-127.5632164287793
 30
0.0
 10
591.0088218796451
 20
-127.7038846545196
 30
0.0
 10
590.9612768159478
 20
-127.8487071808295
 30
0.0
 10
590.9230976717637
 20
-127.9701615509849
 30
0.0
 10
590.891134565097
 20
-128.0749271028118
 30
0.0
 10
590.8726458396212
 20
-128.1368403140856
 30
0.0
 10
590.8565794576987
 20
-128.1915154164849
 30
0.0
 10
590.8451903053406
 20
-128.2306777956009
 30
0.0
 10
590.833479646126
 20
-128.2714151595265
 30
0.0
 10
590.8196712045772
 20
-128.3199830346555
 30
0.0
 10
590.8016774151519
 20
-128.3842426152559
 30
0.0
 10
590.7800656033157
 20
-128.4632329077853
 30
0.0
 10
590.7584768665064
 20
-128.5443336115897
 30
0.0
 10
590.7392841380689
 20
-128.6184082311134
 30
0.0
 10
590.7199447547187
 20
-128.6950883981395
 30
0.0
 10
590.7057023050221
 20
-128.753423734634
 30
0.0
 10
590.6954560956768
 20
-128.7963277474675
 30
0.0
 10
590.6911430891075
 20
-128.8145333211158
 30
0.0
 10
590.6865394219221
 20
-128.8341108134688
 30
0.0
 10
590.6806454202808
 20
-128.8594460506108
 30
0.0
 10
590.6729812969272
 20
-128.892928173717
 30
0.0
 10
590.6645695262766
 20
-128.9304580410473
 30
0.0
 10
590.654893732727
 20
-128.9745305002025
 30
0.0
 10
590.6450358124216
 20
-129.0205821828648
 30
0.0
 10
590.6347541482118
 20
-129.0701440185286
 30
0.0
 10
590.6227600070781
 20
-129.1297178424938
 30
0.0
 10
590.6081599851507
 20
-129.2056065570178
 30
0.0
 10
590.5861125773695
 20
-129.3288325609782
 30
0.0
 10
590.5623182189056
 20
-129.4777956581916
 30
0.0
 10
590.5476709157301
 20
-129.595506699384
 30
0.0
 10
590.5408574494677
 20
-129.6502622705373
 30
0.0
 11
591.2529858789474
 21
-127.0671841352671
 31
0.0
 11
591.2341502886434
 21
-127.1097023053164
 31
0.0
 11
591.2153892519807
 21
-127.15318424796
 31
0.0
 11
591.1624983330798
 21
-127.2818383052428
 31
0.0
 11
591.1097134499544
 21
-127.4190605025851
 31
0.0
 11
591.0559481473543
 21
-127.5676265998981
 31
0.0
 11
591.0090500820731
 21
-127.704199292434
 31
0.0
 11
590.9641852280906
 21
-127.840740235137
 31
0.0
 11
590.9134159112674
 21
-128.0020887137814
 31
0.0
 11
590.8932661101705
 21
-128.0681431135036
 31
0.0
 11
590.8673965155484
 21
-128.1547533531066
 31
0.0
 11
590.8577000818759
 21
-128.1877503871565
 31
0.0
 11
590.8448055310785
 21
-128.2320903990196
 31
0.0
 11
590.8332616578089
 21
-128.2722493704088
 31
0.0
 11
590.822541811691
 21
-128.3099543263863
 31
0.0
 11
590.8035347816639
 21
-128.3778370132616
 31
0.0
 11
590.7796578322645
 21
-128.4651308820275
 31
0.0
 11
590.7578778157158
 21
-128.5469665963043
 31
0.0
 11
590.7386747737659
 21
-128.6211081892979
 31
0.0
 11
590.7219789076095
 21
-128.6873234799573
 31
0.0
 11
590.7000650671389
 21
-128.7770531625637
 31
0.0
 11
590.6955380573312
 21
-128.7960092622105
 31
0.0
 11
590.6908179334185
 21
-128.8159333773729
 31
0.0
 11
590.687119168319
 21
-128.8316681555193
 31
0.0
 11
590.6817496594306
 21
-128.8547469311115
 31
0.0
 11
590.6732312041556
 21
-128.8919608602405
 31
0.0
 11
590.6642261984742
 21
-128.9321363471327
 31
0.0
 11
590.6564987851393
 21
-128.9673318313689
 31
0.0
 11
590.6443298015107
 21
-129.0242043374145
 31
0.0
 11
590.6347663993328
 21
-129.0703131351273
 31
0.0
 11
590.6255695052128
 21
-129.1159969398993
 31
0.0
 11
590.6088447837802
 21
-129.2030210022538
 31
0.0
 11
590.5918123074626
 21
-129.2981245723451
 31
0.0
 11
590.5621776771146
 21
-129.4861161666159
 31
0.0
 11
590.5408574494677
 21
-129.6502622705373
 31
0.0
  0
SPLINE
  5
2B2
330
1F
100
AcDbEntity
  8
0
  6
Continuous
 62
     7
100
AcDbSpline
210
0.0
220
0.0
230
1.0
 70
     8
 71
     3
 72
    11
 73
     7
 74
     5
 42
0.000000001
 43
0.0000000001
 44
0.00000001
 40
0.0
 40
0.0
 40
0.0
 40
0.0
 40
0.1832136796506282
 40
0.3392180895284367
 40
0.4878825097860946
 40
0.6644259699672688
 40
0.6644259699672688
 40
0.6644259699672688
 40
0.6644259699672688
 10
590.5408574494677
 20
-129.6502622705373
 30
0.0
 10
590.5355516004635
 20
-129.7111052757122
 30
0.0
 10
590.5257278942985
 20
-129.8237554240392
 30
0.0
 10
590.5158276975382
 20
-129.9860940367665
 30
0.0
 10
590.508429625831
 20
-130.1463369115664
 30
0.0
 10
590.5059609604016
 20
-130.2547153657875
 30
0.0
 10
590.5046208199556
 20
-130.3135500636494
 30
0.0
 11
590.5408574494677
 21
-129.6502622705373
 31
0.0
 11
590.5257976162023
 21
-129.832855955731
 31
0.0
 11
590.5160716281629
 21
-129.9885568905849
 31
0.0
 11
590.5093871407239
 21
-130.1370709556707
 31
0.0
 11
590.5046208199556
 21
-130.3135500636494
 31
0.0
  0
SPLINE
  5
2B3
330
1F
100
AcDbEntity
  8
0
  6
Continuous
 62
     2
100
AcDbSpline
210
0.0
220
0.0
230
1.0
 70
     8
 71
     3
 72
     9
 73
     5
 74
     3
 42
0.000000001
 43
0.0000000001
 44
0.00000001
 40
0.0
 40
0.0
 40
0.0
 40
0.0
 40
1.217434103991159
 40
2.443213130402363
 40
2.443213130402363
 40
2.443213130402363
 40
2.443213130402363
 10
590.410709002401
 20
-134.5431503714411
 30
0.0
 10
590.4953124892593
 20
-134.9609321139003
 30
0.0
 10
590.6650993955045
 20
-135.7993592823064
 30
0.0
 10
591.4064179337761
 20
-136.2269088524468
 30
0.0
 10
591.7783432157288
 20
-136.441413790006
 30
0.0
 11
590.410709002401
 21
-134.5431503714411
 31
0.0
 11
590.806427998079
 21
-135.6944766853223
 31
0.0
 11
591.7783432157288
 21
-136.441413790006
 31
0.0
  0
SPLINE
  5
2B4
330
1F
100
AcDbEntity
  8
0
  6
Continuous
 62
     2
100
AcDbSpline
210
0.0
220
0.0
230
1.0
 70
     8
 71
     3
 72
    42
 73
    38
 74
    36
 42
0.000000001
 43
0.0000000001
 44
0.00000001
 40
0.0
 40
0.0
 40
0.0
 40
0.0
 40
0.3755614498935218
 40
0.7585054206940761
 40
1.135731447284522
 40
1.321587848457862
 40
1.500820881593971
 40
1.671701344874188
 40
1.767790459983671
 40
1.860029610456411
 40
1.904596066554373
 40
1.948069487491244
 40
1.969378254895907
 40
1.990406035888002
 40
2.001076575404794
 40
2.011151923432831
 40
2.021466886498716
 40
2.031811369517408
 40
2.182840971907861
 40
2.321227783974893
 40
2.446542565273743
 40
2.558355710454006
 40
2.770936122445611
 40
2.963632877498514
 40
3.136658550813122
 40
3.290224464097853
 40
3.424540663674527
 40
3.573839876230082
 40
3.704913740002425
 40
3.81817920870948
 40
3.914051650533313
 40
3.992944794864631
 40
4.055270717642838
 40
4.101439969362194
 40
4.131862173545652
 40
4.184437191556342
 40
4.233143913711404
 40
4.233143913711404
 40
4.233143913711404
 40
4.233143913711404
 10
590.5046208199556
 20
-130.3135500636494
 30
0.0
 10
590.5059168836035
 20
-130.4387311655137
 30
0.0
 10
590.5085344733002
 20
-130.6915540908296
 30
0.0
 10
590.5158834063672
 20
-131.0700627635924
 30
0.0
 10
590.5219448326774
 20
-131.3853462551065
 30
0.0
 10
590.5258784650905
 20
-131.6327539966825
 30
0.0
 10
590.5279849671626
 20
-131.8113988338263
 30
0.0
 10
590.5288504823639
 20
-131.9601319945299
 30
0.0
 10
590.5287318296653
 20
-132.0798687266011
 30
0.0
 10
590.528183716936
 20
-132.1574990287596
 30
0.0
 10
590.5274246772553
 20
-132.2175873736971
 30
0.0
 10
590.5268165551315
 20
-132.254031973992
 30
0.0
 10
590.5262428989822
 20
-132.2826295644963
 30
0.0
 10
590.5258473175152
 20
-132.3002941845692
 30
0.0
 10
590.5255090397852
 20
-132.3142146346086
 30
0.0
 10
590.5252457374256
 20
-132.3245649036773
 30
0.0
 10
590.5249853919083
 20
-132.3348065264189
 30
0.0
 10
590.5235181874526
 20
-132.3920173985102
 30
0.0
 10
590.5208204263236
 20
-132.491901407263
 30
0.0
 10
590.5167331890555
 20
-132.630084840768
 30
0.0
 10
590.5127287618637
 20
-132.75519247483
 30
0.0
 10
590.5075909417587
 20
-132.9050072727316
 30
0.0
 10
590.5011242469908
 20
-133.077249977736
 30
0.0
 10
590.4930375853239
 20
-133.2698485148235
 30
0.0
 10
590.4850139745124
 20
-133.4427591240139
 30
0.0
 10
590.4772253189975
 20
-133.596197984296
 30
0.0
 10
590.4692201610782
 20
-133.7417054517428
 30
0.0
 10
590.4609894672807
 20
-133.879690586465
 30
0.0
 10
590.4525004891805
 20
-134.0106291235308
 30
0.0
 10
590.4445860298457
 20
-134.1237570159173
 30
0.0
 10
590.4374124512203
 20
-134.219499385443
 30
0.0
 10
590.4311413217054
 20
-134.2982809140789
 30
0.0
 10
590.4259435849924
 20
-134.3605272234027
 30
0.0
 10
590.4219569093584
 20
-134.4066609993341
 30
0.0
 10
590.4183136647339
 20
-134.4495623600872
 30
0.0
 10
590.4151554795196
 20
-134.4933515104775
 30
0.0
 10
590.4121529307415
 20
-134.5269788652427
 30
0.0
 10
590.410709002401
 20
-134.5431503714411
 30
0.0
 11
590.5046208199556
 21
-130.3135500636494
 31
0.0
 11
590.509070524551
 21
-130.6890851515145
 31
0.0
 11
590.5159081822236
 21
-131.0719680728962
 31
0.0
 11
590.5228909591854
 21
-131.4491294654328
 31
0.0
 11
590.5257840582274
 21
-131.6349633478272
 31
0.0
 11
590.5278351652688
 21
-131.8141846443747
 31
0.0
 11
590.5287472779529
 21
-131.9850626733544
 31
0.0
 11
590.5286313789603
 21
-132.0811517185734
 31
0.0
 11
590.5279560491516
 21
-132.1733883967949
 31
0.0
 11
590.5273896078321
 21
-132.2179512529974
 31
0.0
 11
590.526660512798
 21
-132.2614185596495
 31
0.0
 11
590.5262326905754
 21
-132.2827230318601
 31
0.0
 11
590.5257611747548
 21
-132.3037455256688
 31
0.0
 11
590.525502149284
 21
-132.3144129208185
 31
0.0
 11
590.5252478098722
 21
-132.3244850580915
 31
0.0
 11
590.5249852657064
 21
-132.3347966793754
 31
0.0
 11
590.524720150327
 21
-132.3451377645529
 31
0.0
 11
590.5206392347477
 21
-132.4961122223269
 31
0.0
 11
590.516545642628
 21
-132.6344384751916
 31
0.0
 11
590.512534398856
 21
-132.7596890412996
 31
0.0
 11
590.5087005283198
 21
-132.8714364388034
 31
0.0
 11
590.5007108437464
 21
-133.0838666541761
 31
0.0
 11
590.4926135063771
 21
-133.2763932041279
 31
0.0
 11
590.4845806337138
 21
-133.449232309934
 31
0.0
 11
590.4767843432586
 21
-133.6026001928702
 31
0.0
 11
590.4693967525137
 21
-133.736713074212
 31
0.0
 11
590.4604911936345
 21
-133.8857464459475
 31
0.0
 11
590.4519970670417
 21
-134.0165447930418
 31
0.0
 11
590.4440806805219
 21
-134.1295332757374
 31
0.0
 11
590.4369083418618
 21
-134.2251370542761
 31
0.0
 11
590.4306463588485
 21
-134.3037812889005
 31
0.0
 11
590.4254610392686
 21
-134.3658911398525
 31
0.0
 11
590.4215186909088
 21
-134.4118917673744
 31
0.0
 11
590.4189856215559
 21
-134.4422083317085
 31
0.0
 11
590.4149080740768
 21
-134.494624990498
 31
0.0
 11
590.410709002401
 21
-134.5431503714411
 31
0.0
  0
SPLINE
  5
2B5
330
1F
100
AcDbEntity
  8
0
  6
Continuous
 62
     7
100
AcDbSpline
210
0.0
220
0.0
230
1.0
 70
     8
 71
     3
 72
    15
 73
    11
 74
     9
 42
0.000000001
 43
0.0000000001
 44
0.00000001
 40
0.0
 40
0.0
 40
0.0
 40
0.0
 40
1.372021433384857
 40
2.743873489505815
 40
4.115595912505293
 40
5.487248178726611
 40
6.858900444947754
 40
8.23062286794728
 40
9.6024749240682
 40
10.97449635745305
 40
10.97449635745305
 40
10.97449635745305
 40
10.97449635745305
 10
595.6618046867533
 20
-291.5402654242109
 30
0.0
 10
595.2037311639041
 20
-291.5142307803457
 30
0.0
 10
594.2876406692155
 20
-291.4621646922214
 30
0.0
 10
592.9663729403289
 20
-291.0461576725702
 30
0.0
 10
591.7486801482373
 20
-290.3995406047496
 30
0.0
 10
590.6817926252585
 20
-289.5226762108767
 30
0.0
 10
589.8049282313854
 20
-288.4557886878981
 30
0.0
 10
589.1583111635648
 20
-287.2380958958061
 30
0.0
 10
588.7423041439135
 20
-285.91682816692
 30
0.0
 10
588.6902380557893
 20
-285.0007376722312
 30
0.0
 10
588.6642034119242
 20
-284.542664149382
 30
0.0
 11
595.6618046867533
 21
-291.5402654242109
 31
0.0
 11
594.2963850713118
 21
-291.4058329423861
 31
0.0
 11
592.9835762501314
 21
-291.0076984570819
 31
0.0
 11
591.7737852407398
 21
-290.3611475125714
 31
0.0
 11
590.7134625997567
 21
-289.4910062363784
 31
0.0
 11
589.8433213235636
 21
-288.4306835953954
 31
0.0
 11
589.1967703790531
 21
-287.2208925860038
 31
0.0
 11
588.7986358937488
 21
-285.9080837648235
 31
0.0
 11
588.6642034119242
 21
-284.542664149382
 31
0.0
  0
SPLINE
  5
2B6
330
1F
100
AcDbEntity
  8
0
  6
Continuous
 62
     7
100
AcDbSpline
210
0.0
220
0.0
230
1.0
 70
     8
 71
     3
 72
    49
 73
    45
 74
    43
 42
0.000000001
 43
0.0000000001
 44
0.00000001
 40
0.0
 40
0.0
 40
0.0
 40
0.0
 40
0.9014461825477901
 40
1.801207456880531
 40
2.22597973649977
 40
2.715170313022961
 40
3.190239002254031
 40
3.667482822507095
 40
3.979943829030325
 40
4.280889026461869
 40
4.587814260910029
 40
4.930959997315253
 40
5.111408185798567
 40
5.274359087757611
 40
5.466709176058945
 40
5.633322199741393
 40
5.999199604412982
 40
6.412372630445027
 40
7.164688938144756
 40
7.918940619460819
 40
8.471480153690106
 40
8.941693770145774
 40
9.43022163663873
 40
9.853246866913041
 40
10.34076980768121
 40
10.76505174456715
 40
11.27716595641441
 40
11.78693959343495
 40
12.16267686345729
 40
12.59400175041634
 40
12.96052796441349
 40
13.29184386870127
 40
13.67995030711643
 40
14.06917185631839
 40
14.3971355855255
 40
14.76990183215072
 40
15.39994743747119
 40
16.02998113111425
 40
16.96537195840773
 40
17.90141648324433
 40
18.3849832899201
 40
18.80318142444164
 40
19.22760774848231
 40
19.70981184206754
 40
19.70981184206754
 40
19.70981184206754
 40
19.70981184206754
 10
708.1191619641822
 20
-118.4364524645113
 30
0.0
 10
708.0797245493471
 20
-118.1379508010797
 30
0.0
 10
708.0009234441061
 20
-117.5415054076891
 30
0.0
 10
708.0543817019109
 20
-116.79620695938
 30
0.0
 10
708.1613538035139
 20
-116.2010499394146
 30
0.0
 10
708.2807889970393
 20
-115.7529731923234
 30
0.0
 10
708.4436282617121
 20
-115.3003584883776
 30
0.0
 10
708.6195279104431
 20
-114.9166157303459
 30
0.0
 10
708.7938086160739
 20
-114.597373182612
 30
0.0
 10
708.9552898349083
 20
-114.3363593857016
 30
0.0
 10
709.1364269497878
 20
-114.0760214506856
 30
0.0
 10
709.307478622242
 20
-113.8581080844305
 30
0.0
 10
709.4570030907983
 20
-113.6848189675227
 30
0.0
 10
709.5777458940822
 20
-113.5532067818201
 30
0.0
 10
709.6993603968547
 20
-113.4287527213291
 30
0.0
 10
709.8736566738139
 20
-113.2613895400671
 30
0.0
 10
710.1112713519573
 20
-113.0538791128324
 30
0.0
 10
710.518330409828
 20
-112.7452255500089
 30
0.0
 10
711.0671879861427
 20
-112.4122667511665
 30
0.0
 10
711.6982462647659
 20
-112.1370138994397
 30
0.0
 10
712.2658561217881
 20
-111.9644546261283
 30
0.0
 10
712.7597065703573
 20
-111.8621714752727
 30
0.0
 10
713.2176403154219
 20
-111.8074353535589
 30
0.0
 10
713.6840739228561
 20
-111.7897455033701
 30
0.0
 10
714.1291968051733
 20
-111.8089289587422
 30
0.0
 10
714.6005992686684
 20
-111.8677593910862
 30
0.0
 10
715.0729933572425
 20
-111.9671673030087
 30
0.0
 10
715.5189313247304
 20
-112.1042765419444
 30
0.0
 10
715.9273294443117
 20
-112.265967535066
 30
0.0
 10
716.2801701186173
 20
-112.4358373820905
 30
0.0
 10
716.6071151357786
 20
-112.6228442701131
 30
0.0
 10
716.9097671489545
 20
-112.8217901619711
 30
0.0
 10
717.2052264255399
 20
-113.044254098104
 30
0.0
 10
717.4838036250917
 20
-113.285823287727
 30
0.0
 10
717.742747700762
 20
-113.5409595222205
 30
0.0
 10
718.0389848364052
 20
-113.8715227241991
 30
0.0
 10
718.3655346831074
 20
-114.3085100393657
 30
0.0
 10
718.7362450799753
 20
-114.9410849646729
 30
0.0
 10
719.0559114193989
 20
-115.7155174548947
 30
0.0
 10
719.2321672043355
 20
-116.4843889973572
 30
0.0
 10
719.2934822772044
 20
-117.0946149057598
 30
0.0
 10
719.3018760176833
 20
-117.5369126174949
 30
0.0
 10
719.2797890319105
 20
-117.9786230191967
 30
0.0
 10
719.2337378380537
 20
-118.2774938339068
 30
0.0
 10
719.2092448596683
 20
-118.4364524645114
 30
0.0
 11
708.1191619641822
 21
-118.4364524645113
 31
0.0
 11
708.0314213880584
 21
-117.5392864687706
 31
0.0
 11
708.087159035467
 21
-116.6412532460525
 31
0.0
 11
708.1628857412913
 21
-116.2232855966067
 31
0.0
 11
708.2886991835201
 21
-115.7505505774329
 31
0.0
 11
708.4495706600268
 21
-115.3035487565444
 31
0.0
 11
708.6484209586835
 21
-114.8697052098616
 31
0.0
 11
708.7981420155489
 21
-114.5954507917588
 31
0.0
 11
708.9564765116913
 21
-114.3395246319099
 31
0.0
 11
709.1317729155292
 21
-114.0875836260186
 31
0.0
 11
709.3436489754399
 21
-113.8176622823286
 31
0.0
 11
709.4615325357267
 21
-113.6810423168181
 31
0.0
 11
709.5716914417535
 21
-113.5609672906862
 31
0.0
 11
709.7061249324142
 21
-113.4233947894464
 31
0.0
 11
709.8263045966944
 21
-113.3079965746285
 31
0.0
 11
710.1018870553133
 21
-113.0673296182561
 31
0.0
 11
710.431123587417
 21
-112.8176993806169
 31
0.0
 11
711.0743622385337
 21
-112.4275406115025
 31
0.0
 11
711.7657019501482
 21
-112.125969720193
 31
0.0
 11
712.2943486311235
 21
-111.9652444145204
 31
0.0
 11
712.7547909787834
 21
-111.8698835745491
 31
0.0
 11
713.2398657788854
 21
-111.8119015525052
 31
0.0
 11
713.6625871363776
 21
-111.7958703472211
 31
0.0
 11
714.1496579682272
 21
-111.8168613635511
 31
0.0
 11
714.570674126392
 21
-111.8694023637734
 31
0.0
 11
715.0718116497469
 21
-111.9748639629967
 31
0.0
 11
715.5590767106446
 21
-112.1246702434831
 31
0.0
 11
715.9084305583316
 21
-112.2629828796402
 31
0.0
 11
716.2970622840344
 21
-112.450083227202
 31
0.0
 11
716.6152219594751
 21
-112.6320609362542
 31
0.0
 11
716.8920792776971
 21
-112.814050644422
 31
0.0
 11
717.2021261754868
 21
-113.0474977023251
 31
0.0
 11
717.4961874048976
 21
-113.302490658803
 31
0.0
 11
717.7298060809076
 21
-113.5326699845213
 31
0.0
 11
717.978579317665
 21
-113.8102786144598
 31
0.0
 11
718.3557284866378
 21
-114.3149725508918
 31
0.0
 11
718.6742730306821
 21
-114.8585457556538
 31
0.0
 11
719.0310728631022
 21
-115.723213252565
 31
0.0
 11
719.2404307358095
 21
-116.6355446806751
 31
0.0
 11
719.288653014217
 21
-117.1167010677584
 31
0.0
 11
719.2970627094621
 21
-117.5348146376311
 31
0.0
 11
719.2739725710138
 21
-117.9586124094728
 31
0.0
 11
719.2092448596683
 21
-118.4364524645114
 31
0.0
  0
ARC
  5
2B7
330
1F
100
AcDbEntity
  8
1
  6
Continuous
 62
     7
100
AcDbCircle
 10
1322.543437687411
 20
-121.6841165965887
 30
0.0
 40
0.5
100
AcDbArc
 50
179.9999999999886
 51
268.5000000000103
  0
MTEXT
  5
2B8
330
1F
100
AcDbEntity
  8
1
 62
     7
100
AcDbMText
 10
1519.010056061862
 20
-778.9859512683939
 30
0.0
 40
22.5
 41
0.0
 71
     5
 72
     1
  1
1:5
  7
CONVERTER_11
 73
     1
 44
1.32052821128451
  0
MTEXT
  5
2B9
330
1F
100
AcDbEntity
  8
1
 62
     7
100
AcDbMText
 10
948.6100560618619
 20
-769.2285089514181
 30
0.0
 40
22.5
 41
0.0
 71
     4
 72
     1
  1
TM 3418 R3\PTRIPLE MODULAR COVER X TM
  7
CONVERTER_11
 73
     1
 44
0.90036014405762
  0
MTEXT
  5
2BA
330
1F
100
AcDbEntity
  8
1
 62
     7
100
AcDbMText
 10
836.7048533068911
 20
-790.6565192416914
 30
0.0
 40
15.0
 41
0.0
 71
     4
 72
     1
  1
ROTELLA
  7
CONVERTER_11
 73
     1
 44
1.32052821128451
  0
MTEXT
  5
2BB
330
1F
100
AcDbEntity
  8
1
 62
     7
100
AcDbMText
 10
834.3048533068913
 20
-769.2285089514186
 30
0.0
 40
15.0
 41
0.0
 71
     4
 72
     1
  1
16/09/11
  7
CONVERTER_11
 73
     1
 44
1.32052821128451
  0
DIMENSION
  5
2C9
330
1F
100
AcDbEntity
  8
1
100
AcDbDimension
  2
*D3
 10
1311.043437687412
 20
-366.2380388920352
 30
0.0
 11
1279.293437687332
 21
-347.9880388920352
 31
0.0
 70
    32
  1
<>
 71
     5
 42
-1.0
 53
0.00013888888889
  3
ME10_DIM_10
100
AcDbAlignedDimension
 13
1357.543437687252
 23
-281.8000275886798
 33
0.0
 14
1311.043437687412
 24
-291.5402654242109
 34
0.0
100
AcDbRotatedDimension
  0
DIMENSION
  5
2D4
330
1F
100
AcDbEntity
  8
1
100
AcDbDimension
  2
*D4
 10
588.6642034119242
 20
-366.2380388920352
 30
0.0
 11
761.1642034119451
 21
-348.7380388920352
 31
0.0
 70
    33
  1
<>
 71
     5
 42
-1.0
 53
0.00013888888889
  3
ME10_DIM_11
100
AcDbAlignedDimension
 13
933.664203411966
 23
-284.5426641493819
 33
0.0
 14
588.6642034119242
 24
-284.542664149382
 34
0.0
  0
DIMENSION
  5
2DF
330
1F
100
AcDbEntity
  8
1
100
AcDbDimension
  2
*D5
 10
998.5687419322836
 20
-107.540265424196
 30
0.0
 11
981.0687419322836
 21
-199.5402654242034
 31
0.0
 70
    33
  1
<>
 71
     5
 42
-1.0
 53
89.99999999999991
  3
ME10_DIM_12
100
AcDbAlignedDimension
 13
926.6666021371371
 23
-291.5402654242109
 33
0.0
 14
926.6666021371374
 24
-107.540265424196
 34
0.0
  0
HATCH
  5
2E0
330
1F
100
AcDbEntity
  8
1
  6
Continuous
 62
     3
100
AcDbHatch
 10
0.0
 20
0.0
 30
0.0
210
0.0
220
0.0
230
1.0
  2
_USER
 70
     0
 71
     1
 91
        2
 92
        1
 93
        6
 72
     1
 10
911.1239655763892
 20
-152.4231599875266
 11
902.7075303012479
 21
-157.2787957231856
 72
     2
 10
902.7908173768295
 20
-157.4231599875268
 40
0.1666666666664923
 50
119.9816393689115
 51
240.018360631025
 73
     1
 72
     1
 10
902.7075303012479
 20
-157.5675242518676
 11
911.1239655763892
 21
-162.4231599875268
 72
     1
 10
911.1239655763892
 20
-162.4231599875268
 11
919.540400851531
 21
-157.5675242518676
 72
     2
 10
919.4571137759493
 20
-157.4231599875268
 40
0.1666666666661722
 50
299.981639368975
 51
420.0183606310885
 73
     1
 72
     1
 10
919.540400851531
 20
-157.2787957231856
 11
911.1239655763892
 21
-152.4231599875266
 97
        6
330
26C
330
200
330
1FC
330
26E
330
1FA
330
1FE
 92
       16
 93
        6
 72
     1
 10
919.4904286061818
 20
-157.4809056932634
 11
911.1239655763892
 21
-162.3077112873746
 72
     1
 10
911.1239655763892
 20
-162.3077112873746
 11
902.757502546597
 21
-157.4809056932634
 72
     2
 10
902.7908173768295
 20
-157.4231599875268
 40
0.0666666666661761
 50
119.98163936872
 51
240.0183606310603
 73
     0
 72
     1
 10
902.757502546597
 20
-157.3654142817907
 11
911.1239655763892
 21
-152.5386086876795
 72
     1
 10
911.1239655763892
 20
-152.5386086876795
 11
919.4904286061823
 21
-157.36541428179
 72
     2
 10
919.4571137759493
 20
-157.4231599875268
 40
0.0666666666666193
 50
299.9816393689852
 51
420.0183606312801
 73
     0
 97
        6
330
201
330
1FD
330
26D
330
1FB
330
1FF
330
26B
 75
     1
 76
     0
 52
45.0
 41
0.05
 77
     0
 78
     1
 53
45.0
 43
0.0
 44
0.0
 45
-0.0353553390593274
 46
0.0353553390593274
 79
     0
 98
        1
 10
0.0
 20
0.0
  0
ENDSEC
  0
SECTION
  2
OBJECTS
  0
DICTIONARY
  5
C
330
0
100
AcDbDictionary
281
     1
  3
ACAD_GROUP
350
D
  3
ACAD_LAYOUT
350
1A
  3
ACAD_MATERIAL
350
3B
  3
ACAD_MLEADERSTYLE
350
2E3
  3
ACAD_MLINESTYLE
350
17
  3
ACAD_PLOTSETTINGS
350
19
  3
ACAD_PLOTSTYLENAME
350
E
  3
ACAD_VISUALSTYLE
350
2A
  3
AcDbVariableDictionary
350
2E1
  0
DICTIONARY
  5
D
102
{ACAD_REACTORS
330
C
102
}
330
C
100
AcDbDictionary
281
     1
  0
DICTIONARY
  5
1A
102
{ACAD_REACTORS
330
C
102
}
330
C
100
AcDbDictionary
281
     1
  3
Layout1
350
1E
  3
Layout2
350
26
  3
Model
350
22
  0
DICTIONARY
  5
3B
102
{ACAD_REACTORS
330
C
102
}
330
C
100
AcDbDictionary
281
     1
  3
ByBlock
350
3D
  3
ByLayer
350
3C
  3
Global
350
3E
  0
DICTIONARY
  5
2E3
102
{ACAD_REACTORS
330
C
102
}
330
C
100
AcDbDictionary
281
     1
  0
DICTIONARY
  5
17
102
{ACAD_REACTORS
330
C
102
}
330
C
100
AcDbDictionary
281
     1
  3
Standard
350
18
  0
DICTIONARY
  5
19
102
{ACAD_REACTORS
330
C
102
}
330
C
100
AcDbDictionary
281
     1
  0
ACDBDICTIONARYWDFLT
  5
E
102
{ACAD_REACTORS
330
C
102
}
330
C
100
AcDbDictionary
281
     1
  3
Normal
350
F
100
AcDbDictionaryWithDefault
340
F
  0
DICTIONARY
  5
2A
102
{ACAD_REACTORS
330
C
102
}
330
C
100
AcDbDictionary
281
     1
  3
2dWireframe
350
2F
  3
3D Hidden
350
31
  3
3dWireframe
350
30
  3
Basic
350
32
  3
Brighten
350
36
  3
ColorChange
350
3A
  3
Conceptual
350
34
  3
Dim
350
35
  3
Facepattern
350
39
  3
Flat
350
2B
  3
FlatWithEdges
350
2C
  3
Gouraud
350
2D
  3
GouraudWithEdges
350
2E
  3
Linepattern
350
38
  3
Realistic
350
33
  3
Thicken
350
37
  0
DICTIONARY
  5
2E1
102
{ACAD_REACTORS
330
C
102
}
330
C
100
AcDbDictionary
281
     1
  3
DIMASSOC
350
2E4
  3
HIDETEXT
350
2E5
  0
LAYOUT
  5
1E
102
{ACAD_REACTORS
330
1A
102
}
330
1A
100
AcDbPlotSettings
  1

  2
none_device
  4

  6

 40
0.0
 41
0.0
 42
0.0
 43
0.0
 44
0.0
 45
0.0
 46
0.0
 47
0.0
 48
0.0
 49
0.0
140
0.0
141
0.0
142
1.0
143
1.0
 70
   688
 72
     0
 73
     0
 74
     5
  7

 75
    16
147
1.0
148
0.0
149
0.0
100
AcDbLayout
  1
Layout1
 70
     1
 71
     1
 10
0.0
 20
0.0
 11
12.0
 21
9.0
 12
0.0
 22
0.0
 32
0.0
 14
1.00000000000000E+20
 24
1.00000000000000E+20
 34
1.00000000000000E+20
 15
-1.00000000000000E+20
 25
-1.00000000000000E+20
 35
-1.00000000000000E+20
146
0.0
 13
0.0
 23
0.0
 33
0.0
 16
1.0
 26
0.0
 36
0.0
 17
0.0
 27
1.0
 37
0.0
 76
     0
330
1B
  0
LAYOUT
  5
26
102
{ACAD_REACTORS
330
1A
102
}
330
1A
100
AcDbPlotSettings
  1

  2
none_device
  4

  6

 40
0.0
 41
0.0
 42
0.0
 43
0.0
 44
0.0
 45
0.0
 46
0.0
 47
0.0
 48
0.0
 49
0.0
140
0.0
141
0.0
142
1.0
143
1.0
 70
   688
 72
     0
 73
     0
 74
     5
  7

 75
    16
147
1.0
148
0.0
149
0.0
100
AcDbLayout
  1
Layout2
 70
     1
 71
     2
 10
0.0
 20
0.0
 11
0.0
 21
0.0
 12
0.0
 22
0.0
 32
0.0
 14
0.0
 24
0.0
 34
0.0
 15
0.0
 25
0.0
 35
0.0
146
0.0
 13
0.0
 23
0.0
 33
0.0
 16
1.0
 26
0.0
 36
0.0
 17
0.0
 27
1.0
 37
0.0
 76
     0
330
23
  0
LAYOUT
  5
22
102
{ACAD_REACTORS
330
1A
102
}
330
1A
100
AcDbPlotSettings
  1

  2
none_device
  4

  6

 40
0.0
 41
0.0
 42
0.0
 43
0.0
 44
0.0
 45
0.0
 46
0.0
 47
0.0
 48
0.0
 49
0.0
140
0.0
141
0.0
142
1.0
143
1.0
 70
  1712
 72
     0
 73
     0
 74
     0
  7

 75
     0
147
1.0
148
0.0
149
0.0
100
AcDbLayout
  1
Model
 70
     1
 71
     0
 10
0.0
 20
0.0
 11
12.0
 21
9.0
 12
0.0
 22
0.0
 32
0.0
 14
233.704853306891
 24
-830.7285089514185
 34
0.0
 15
1718.704853306891
 25
219.2714910485823
 35
0.0
146
0.0
 13
0.0
 23
0.0
 33
0.0
 16
1.0
 26
0.0
 36
0.0
 17
0.0
 27
1.0
 37
0.0
 76
     0
330
1F
331
29
  0
MATERIAL
  5
3D
102
{ACAD_REACTORS
330
3B
102
}
102
{ACAD_XDICTIONARY
360
308
102
}
330
3B
100
AcDbMaterial
  1
ByBlock
  0
MATERIAL
  5
3C
102
{ACAD_REACTORS
330
3B
102
}
102
{ACAD_XDICTIONARY
360
306
102
}
330
3B
100
AcDbMaterial
  1
ByLayer
  0
MATERIAL
  5
3E
102
{ACAD_REACTORS
330
3B
102
}
102
{ACAD_XDICTIONARY
360
30A
102
}
330
3B
100
AcDbMaterial
  1
Global
  0
MLINESTYLE
  5
18
102
{ACAD_REACTORS
330
17
102
}
330
17
100
AcDbMlineStyle
  2
Standard
 70
     0
  3

 62
   256
 51
90.0
 52
90.0
 71
     2
 49
0.5
 62
   256
  6
BYLAYER
 49
-0.5
 62
   256
  6
BYLAYER
  0
ACDBPLACEHOLDER
  5
F
102
{ACAD_REACTORS
330
E
102
}
330
E
  0
VISUALSTYLE
  5
2F
102
{ACAD_REACTORS
330
2A
102
}
102
{ACAD_XDICTIONARY
360
2EE
102
}
330
2A
100
AcDbVisualStyle
  2
2dWireframe
 70
     4
 71
     0
 72
     2
 73
     0
 90
        0
 40
-0.6
 41
-30.0
 62
     5
 63
     7
 74
     1
 91
        4
 64
     7
 65
   257
 75
     1
175
     1
 42
1.0
 92
        0
 66
   257
 43
1.0
 76
     1
 77
     6
 78
     2
 67
     7
 79
     5
170
     0
171
     0
290
     0
174
     0
 93
        1
 44
0.0
173
     0
291
     0
 45
0.0
1001
ACAD
1000
AcDbSavedByObjectVersion
1070
     0
  0
VISUALSTYLE
  5
31
102
{ACAD_REACTORS
330
2A
102
}
102
{ACAD_XDICTIONARY
360
2F2
102
}
330
2A
100
AcDbVisualStyle
  2
3D Hidden
 70
     6
 71
     1
 72
     2
 73
     2
 90
        0
 40
-0.6
 41
-30.0
 62
     5
 63
     7
 74
     2
 91
        2
 64
     7
 65
   257
 75
     2
175
     1
 42
40.0
 92
        0
 66
   257
 43
1.0
 76
     1
 77
     6
 78
     2
 67
     7
 79
     3
170
     0
171
     0
290
     0
174
     0
 93
        1
 44
0.0
173
     0
291
     0
 45
0.0
1001
ACAD
1000
AcDbSavedByObjectVersion
1070
     0
  0
VISUALSTYLE
  5
30
102
{ACAD_REACTORS
330
2A
102
}
102
{ACAD_XDICTIONARY
360
2F0
102
}
330
2A
100
AcDbVisualStyle
  2
3dWireframe
 70
     5
 71
     0
 72
     2
 73
     0
 90
        0
 40
-0.6
 41
-30.0
 62
     5
 63
     7
 74
     1
 91
        4
 64
     7
 65
   257
 75
     1
175
     1
 42
1.0
 92
        0
 66
   257
 43
1.0
 76
     1
 77
     6
 78
     2
 67
     7
 79
     5
170
     0
171
     0
290
     0
174
     0
 93
        1
 44
0.0
173
     0
291
     0
 45
0.0
1001
ACAD
1000
AcDbSavedByObjectVersion
1070
     0
  0
VISUALSTYLE
  5
32
102
{ACAD_REACTORS
330
2A
102
}
102
{ACAD_XDICTIONARY
360
2F4
102
}
330
2A
100
AcDbVisualStyle
  2
Basic
 70
     7
 71
     1
 72
     0
 73
     1
 90
        0
 40
-0.6
 41
-30.0
 62
     5
 63
     7
 74
     0
 91
        4
 64
     7
 65
   257
 75
     1
175
     1
 42
1.0
 92
        8
 66
     7
 43
1.0
 76
     1
 77
     6
 78
     2
 67
     7
 79
     5
170
     0
171
     0
290
     0
174
     0
 93
        1
 44
0.0
173
     0
291
     1
 45
0.0
1001
ACAD
1000
AcDbSavedByObjectVersion
1070
     0
  0
VISUALSTYLE
  5
36
102
{ACAD_REACTORS
330
2A
102
}
102
{ACAD_XDICTIONARY
360
2FC
102
}
330
2A
100
AcDbVisualStyle
  2
Brighten
 70
    12
 71
     2
 72
     2
 73
     0
 90
        0
 40
-0.6
 41
-30.0
 62
     5
 63
     7
 74
     1
 91
        4
 64
     7
 65
   257
 75
     1
175
     1
 42
1.0
 92
        8
 66
     7
 43
1.0
 76
     1
 77
     6
 78
     2
 67
     7
 79
     5
170
     0
171
     0
290
     0
174
     0
 93
        1
 44
50.0
173
     0
291
     1
 45
0.0
1001
ACAD
1000
AcDbSavedByObjectVersion
1070
     0
  0
VISUALSTYLE
  5
3A
102
{ACAD_REACTORS
330
2A
102
}
102
{ACAD_XDICTIONARY
360
304
102
}
330
2A
100
AcDbVisualStyle
  2
ColorChange
 70
    16
 71
     2
 72
     2
 73
     3
 90
        0
 40
-0.6
 41
-30.0
 62
     5
 63
     8
 74
     1
 91
        4
 64
     7
 65
   257
 75
     1
175
     1
 42
1.0
 92
        8
 66
     8
 43
1.0
 76
     1
 77
     6
 78
     2
 67
     7
 79
     5
170
     0
171
     0
290
     0
174
     0
 93
        1
 44
0.0
173
     0
291
     1
 45
0.0
1001
ACAD
1000
AcDbSavedByObjectVersion
1070
     0
  0
VISUALSTYLE
  5
34
102
{ACAD_REACTORS
330
2A
102
}
102
{ACAD_XDICTIONARY
360
2F8
102
}
330
2A
100
AcDbVisualStyle
  2
Conceptual
 70
     9
 71
     3
 72
     2
 73
     0
 90
        0
 40
-0.6
 41
-30.0
 62
     5
 63
     7
 74
     2
 91
        2
 64
     7
 65
   257
 75
     1
175
     1
 42
40.0
 92
        8
 66
     7
 43
1.0
 76
     1
 77
     6
 78
     2
 67
     7
 79
     3
170
     0
171
     0
290
     0
174
     0
 93
        1
 44
0.0
173
     0
291
     0
 45
0.0
1001
ACAD
1000
AcDbSavedByObjectVersion
1070
     0
  0
VISUALSTYLE
  5
35
102
{ACAD_REACTORS
330
2A
102
}
102
{ACAD_XDICTIONARY
360
2FA
102
}
330
2A
100
AcDbVisualStyle
  2
Dim
 70
    11
 71
     2
 72
     2
 73
     0
 90
        0
 40
-0.6
 41
-30.0
 62
     5
 63
     7
 74
     1
 91
        4
 64
     7
 65
   257
 75
     1
175
     1
 42
1.0
 92
        8
 66
     7
 43
1.0
 76
     1
 77
     6
 78
     2
 67
     7
 79
     5
170
     0
171
     0
290
     0
174
     0
 93
        1
 44
-50.0
173
     0
291
     1
 45
0.0
1001
ACAD
1000
AcDbSavedByObjectVersion
1070
     0
  0
VISUALSTYLE
  5
39
102
{ACAD_REACTORS
330
2A
102
}
102
{ACAD_XDICTIONARY
360
302
102
}
330
2A
100
AcDbVisualStyle
  2
Facepattern
 70
    15
 71
     2
 72
     2
 73
     0
 90
        0
 40
-0.6
 41
-30.0
 62
     5
 63
     7
 74
     1
 91
        4
 64
     7
 65
   257
 75
     1
175
     1
 42
1.0
 92
        8
 66
     7
 43
1.0
 76
     1
 77
     6
 78
     2
 67
     7
 79
     5
170
     0
171
     0
290
     0
174
     0
 93
        1
 44
0.0
173
     0
291
     1
 45
0.0
1001
ACAD
1000
AcDbSavedByObjectVersion
1070
     0
  0
VISUALSTYLE
  5
2B
102
{ACAD_REACTORS
330
2A
102
}
102
{ACAD_XDICTIONARY
360
2E6
102
}
330
2A
100
AcDbVisualStyle
  2
Flat
 70
     0
 71
     2
 72
     1
 73
     1
 90
        2
 40
-0.6
 41
30.0
 62
     5
 63
     7
 74
     0
 91
        4
 64
     7
 65
   257
 75
     1
175
     1
 42
1.0
 92
        8
 66
     7
 43
1.0
 76
     1
 77
     6
 78
     2
 67
     7
 79
     5
170
     0
171
     0
290
     0
174
     0
 93
       13
 44
0.0
173
     0
291
     1
 45
0.0
1001
ACAD
1000
AcDbSavedByObjectVersion
1070
     0
  0
VISUALSTYLE
  5
2C
102
{ACAD_REACTORS
330
2A
102
}
102
{ACAD_XDICTIONARY
360
2E8
102
}
330
2A
100
AcDbVisualStyle
  2
FlatWithEdges
 70
     1
 71
     2
 72
     1
 73
     1
 90
        2
 40
-0.6
 41
30.0
 62
     5
 63
     7
 74
     1
 91
        4
 64
     7
 65
   257
 75
     1
175
     1
 42
1.0
 92
        0
 66
   257
 43
1.0
 76
     1
 77
     6
 78
     2
 67
     7
 79
     5
170
     0
171
     0
290
     0
174
     0
 93
       13
 44
0.0
173
     0
291
     1
 45
0.0
1001
ACAD
1000
AcDbSavedByObjectVersion
1070
     0
  0
VISUALSTYLE
  5
2D
102
{ACAD_REACTORS
330
2A
102
}
102
{ACAD_XDICTIONARY
360
2EA
102
}
330
2A
100
AcDbVisualStyle
  2
Gouraud
 70
     2
 71
     2
 72
     2
 73
     1
 90
        2
 40
-0.6
 41
30.0
 62
     5
 63
     7
 74
     0
 91
        4
 64
     7
 65
   257
 75
     1
175
     1
 42
1.0
 92
        0
 66
     7
 43
1.0
 76
     1
 77
     6
 78
     2
 67
     7
 79
     5
170
     0
171
     0
290
     0
174
     0
 93
       13
 44
0.0
173
     0
291
     1
 45
0.0
1001
ACAD
1000
AcDbSavedByObjectVersion
1070
     0
  0
VISUALSTYLE
  5
2E
102
{ACAD_REACTORS
330
2A
102
}
102
{ACAD_XDICTIONARY
360
2EC
102
}
330
2A
100
AcDbVisualStyle
  2
GouraudWithEdges
 70
     3
 71
     2
 72
     2
 73
     1
 90
        2
 40
-0.6
 41
30.0
 62
     5
 63
     7
 74
     1
 91
        4
 64
     7
 65
   257
 75
     1
175
     1
 42
1.0
 92
        0
 66
   257
 43
1.0
 76
     1
 77
     6
 78
     2
 67
     7
 79
     5
170
     0
171
     0
290
     0
174
     0
 93
       13
 44
0.0
173
     0
291
     1
 45
0.0
1001
ACAD
1000
AcDbSavedByObjectVersion
1070
     0
  0
VISUALSTYLE
  5
38
102
{ACAD_REACTORS
330
2A
102
}
102
{ACAD_XDICTIONARY
360
300
102
}
330
2A
100
AcDbVisualStyle
  2
Linepattern
 70
    14
 71
     2
 72
     2
 73
     0
 90
        0
 40
-0.6
 41
-30.0
 62
     5
 63
     7
 74
     1
 91
        4
 64
     7
 65
   257
 75
     7
175
     7
 42
1.0
 92
        8
 66
     7
 43
1.0
 76
     1
 77
     6
 78
     2
 67
     7
 79
     5
170
     0
171
     0
290
     0
174
     0
 93
        1
 44
0.0
173
     0
291
     1
 45
0.0
1001
ACAD
1000
AcDbSavedByObjectVersion
1070
     0
  0
VISUALSTYLE
  5
33
102
{ACAD_REACTORS
330
2A
102
}
102
{ACAD_XDICTIONARY
360
2F6
102
}
330
2A
100
AcDbVisualStyle
  2
Realistic
 70
     8
 71
     2
 72
     2
 73
     0
 90
        0
 40
-0.6
 41
-30.0
 62
     5
 63
     7
 74
     1
 91
        0
 64
     7
 65
   257
 75
     1
175
     1
 42
1.0
 92
        8
 66
     8
 43
1.0
 76
     1
 77
     6
 78
     2
 67
     7
 79
     5
170
     0
171
     0
290
     0
174
     0
 93
       13
 44
0.0
173
     0
291
     0
 45
0.0
1001
ACAD
1000
AcDbSavedByObjectVersion
1070
     0
  0
VISUALSTYLE
  5
37
102
{ACAD_REACTORS
330
2A
102
}
102
{ACAD_XDICTIONARY
360
2FE
102
}
330
2A
100
AcDbVisualStyle
  2
Thicken
 70
    13
 71
     2
 72
     2
 73
     0
 90
        0
 40
-0.6
 41
-30.0
 62
     5
 63
     7
 74
     1
 91
        4
 64
     7
 65
   257
 75
     1
175
     1
 42
1.0
 92
       12
 66
     7
 43
1.0
 76
     1
 77
     6
 78
     2
 67
     7
 79
     5
170
     0
171
     0
290
     0
174
     0
 93
        1
 44
0.0
173
     0
291
     1
 45
0.0
1001
ACAD
1000
AcDbSavedByObjectVersion
1070
     0
  0
DICTIONARYVAR
  5
2E4
102
{ACAD_REACTORS
330
2E1
102
}
330
2E1
100
DictionaryVariables
280
     0
  1
2
  0
DICTIONARYVAR
  5
2E5
102
{ACAD_REACTORS
330
2E1
102
}
330
2E1
100
DictionaryVariables
280
     0
  1
1
  0
DICTIONARY
  5
308
330
3D
100
AcDbDictionary
280
     1
281
     1
  3
ACAD_XREC_ROUNDTRIP
360
309
  0
DICTIONARY
  5
306
330
3C
100
AcDbDictionary
280
     1
281
     1
  3
ACAD_XREC_ROUNDTRIP
360
307
  0
DICTIONARY
  5
30A
330
3E
100
AcDbDictionary
280
     1
281
     1
  3
ACAD_XREC_ROUNDTRIP
360
30B
  0
DICTIONARY
  5
2EE
330
2F
100
AcDbDictionary
280
     1
281
     1
  3
ACAD_XREC_ROUNDTRIP
360
2EF
  0
DICTIONARY
  5
2F2
330
31
100
AcDbDictionary
280
     1
281
     1
  3
ACAD_XREC_ROUNDTRIP
360
2F3
  0
DICTIONARY
  5
2F0
330
30
100
AcDbDictionary
280
     1
281
     1
  3
ACAD_XREC_ROUNDTRIP
360
2F1
  0
DICTIONARY
  5
2F4
330
32
100
AcDbDictionary
280
     1
281
     1
  3
ACAD_XREC_ROUNDTRIP
360
2F5
  0
DICTIONARY
  5
2FC
330
36
100
AcDbDictionary
280
     1
281
     1
  3
ACAD_XREC_ROUNDTRIP
360
2FD
  0
DICTIONARY
  5
304
330
3A
100
AcDbDictionary
280
     1
281
     1
  3
ACAD_XREC_ROUNDTRIP
360
305
  0
DICTIONARY
  5
2F8
330
34
100
AcDbDictionary
280
     1
281
     1
  3
ACAD_XREC_ROUNDTRIP
360
2F9
  0
DICTIONARY
  5
2FA
330
35
100
AcDbDictionary
280
     1
281
     1
  3
ACAD_XREC_ROUNDTRIP
360
2FB
  0
DICTIONARY
  5
302
330
39
100
AcDbDictionary
280
     1
281
     1
  3
ACAD_XREC_ROUNDTRIP
360
303
  0
DICTIONARY
  5
2E6
330
2B
100
AcDbDictionary
280
     1
281
     1
  3
ACAD_XREC_ROUNDTRIP
360
2E7
  0
DICTIONARY
  5
2E8
330
2C
100
AcDbDictionary
280
     1
281
     1
  3
ACAD_XREC_ROUNDTRIP
360
2E9
  0
DICTIONARY
  5
2EA
330
2D
100
AcDbDictionary
280
     1
281
     1
  3
ACAD_XREC_ROUNDTRIP
360
2EB
  0
DICTIONARY
  5
2EC
330
2E
100
AcDbDictionary
280
     1
281
     1
  3
ACAD_XREC_ROUNDTRIP
360
2ED
  0
DICTIONARY
  5
300
330
38
100
AcDbDictionary
280
     1
281
     1
  3
ACAD_XREC_ROUNDTRIP
360
301
  0
DICTIONARY
  5
2F6
330
33
100
AcDbDictionary
280
     1
281
     1
  3
ACAD_XREC_ROUNDTRIP
360
2F7
  0
DICTIONARY
  5
2FE
330
37
100
AcDbDictionary
280
     1
281
     1
  3
ACAD_XREC_ROUNDTRIP
360
2FF
  0
XRECORD
  5
309
102
{ACAD_REACTORS
330
308
102
}
330
308
100
AcDbXrecord
280
     1
102
MATERIAL
148
0.0
149
0.0
149
0.0
 93
        0
 94
      127
282
     0
 72
     1
 77
     1
171
     1
175
     1
179
     1
273
     0
  0
XRECORD
  5
307
102
{ACAD_REACTORS
330
306
102
}
330
306
100
AcDbXrecord
280
     1
102
MATERIAL
148
0.0
149
0.0
149
0.0
 93
        0
 94
      127
282
     0
 72
     1
 77
     1
171
     1
175
     1
179
     1
273
     0
  0
XRECORD
  5
30B
102
{ACAD_REACTORS
330
30A
102
}
330
30A
100
AcDbXrecord
280
     1
102
MATERIAL
148
0.0
149
0.0
149
0.0
 93
        0
 94
      127
282
     0
 72
     1
 77
     1
171
     1
175
     1
179
     1
273
     0
  0
XRECORD
  5
2EF
102
{ACAD_REACTORS
330
2EE
102
}
330
2EE
100
AcDbXrecord
280
     1
102
RTVSPropertyOp0
 70
     1
102
RTVSPropertyOp1
 70
     1
102
RTVSPropertyOp2
 70
     1
102
RTVSPropertyOp3
 70
     1
102
RTVSPropertyOp4
 70
     1
102
RTVSPropertyOp5
 70
     1
102
RTVSPropertyOp6
 70
     1
102
RTVSPropertyOp7
 70
     1
102
RTVSPropertyOp8
 70
     1
102
RTVSPropertyOp9
 70
     1
102
RTVSPropertyOp10
 70
     1
102
RTVSPropertyOp11
 70
     1
102
RTVSPropertyOp12
 70
     1
102
RTVSPropertyOp13
 70
     1
102
RTVSPropertyOp14
 70
     1
102
RTVSPropertyOp15
 70
     1
102
RTVSPropertyOp16
 70
     1
102
RTVSPropertyOp17
 70
     1
102
RTVSPropertyOp18
 70
     1
102
RTVSPropertyOp19
 70
     1
102
RTVSPropertyOp20
 70
     1
102
RTVSPropertyOp21
 70
     1
102
RTVSPropertyOp22
 70
     1
102
RTVSPropertyOp23
 70
     1
102
RTVSPropertyOp24
 70
     1
102
RTVSPropertyOp25
 70
     1
102
RTVSPropertyOp26
 70
     1
102
RTVSPropertyOp27
 70
     1
102
RTVSPropertyOp28
 70
     1
102
RTVSPropertyOp29
 70
     1
102
RTVSPropertyOp30
 70
     1
102
RTVSPropertyOp31
 70
     1
102
RTVSPropertyOp32
 70
     1
  0
XRECORD
  5
2F3
102
{ACAD_REACTORS
330
2F2
102
}
330
2F2
100
AcDbXrecord
280
     1
102
RTVSPropertyOp0
 70
     1
102
RTVSPropertyOp1
 70
     1
102
RTVSPropertyOp2
 70
     1
102
RTVSPropertyOp3
 70
     1
102
RTVSPropertyOp4
 70
     1
102
RTVSPropertyOp5
 70
     1
102
RTVSPropertyOp6
 70
     1
102
RTVSPropertyOp7
 70
     1
102
RTVSPropertyOp8
 70
     1
102
RTVSPropertyOp9
 70
     1
102
RTVSPropertyOp10
 70
     1
102
RTVSPropertyOp11
 70
     1
102
RTVSPropertyOp12
 70
     1
102
RTVSPropertyOp13
 70
     1
102
RTVSPropertyOp14
 70
     1
102
RTVSPropertyOp15
 70
     1
102
RTVSPropertyOp16
 70
     1
102
RTVSPropertyOp17
 70
     1
102
RTVSPropertyOp18
 70
     1
102
RTVSPropertyOp19
 70
     1
102
RTVSPropertyOp20
 70
     1
102
RTVSPropertyOp21
 70
     1
102
RTVSPropertyOp22
 70
     1
102
RTVSPropertyOp23
 70
     1
102
RTVSPropertyOp24
 70
     1
102
RTVSPropertyOp25
 70
     1
102
RTVSPropertyOp26
 70
     1
102
RTVSPropertyOp27
 70
     1
102
RTVSPropertyOp28
 70
     1
102
RTVSPropertyOp29
 70
     1
102
RTVSPropertyOp30
 70
     1
102
RTVSPropertyOp31
 70
     1
102
RTVSPropertyOp32
 70
     1
  0
XRECORD
  5
2F1
102
{ACAD_REACTORS
330
2F0
102
}
330
2F0
100
AcDbXrecord
280
     1
102
RTVSPropertyOp0
 70
     1
102
RTVSPropertyOp1
 70
     1
102
RTVSPropertyOp2
 70
     1
102
RTVSPropertyOp3
 70
     1
102
RTVSPropertyOp4
 70
     1
102
RTVSPropertyOp5
 70
     1
102
RTVSPropertyOp6
 70
     1
102
RTVSPropertyOp7
 70
     1
102
RTVSPropertyOp8
 70
     1
102
RTVSPropertyOp9
 70
     1
102
RTVSPropertyOp10
 70
     1
102
RTVSPropertyOp11
 70
     1
102
RTVSPropertyOp12
 70
     1
102
RTVSPropertyOp13
 70
     1
102
RTVSPropertyOp14
 70
     1
102
RTVSPropertyOp15
 70
     1
102
RTVSPropertyOp16
 70
     1
102
RTVSPropertyOp17
 70
     1
102
RTVSPropertyOp18
 70
     1
102
RTVSPropertyOp19
 70
     1
102
RTVSPropertyOp20
 70
     1
102
RTVSPropertyOp21
 70
     1
102
RTVSPropertyOp22
 70
     1
102
RTVSPropertyOp23
 70
     1
102
RTVSPropertyOp24
 70
     1
102
RTVSPropertyOp25
 70
     1
102
RTVSPropertyOp26
 70
     1
102
RTVSPropertyOp27
 70
     1
102
RTVSPropertyOp28
 70
     1
102
RTVSPropertyOp29
 70
     1
102
RTVSPropertyOp30
 70
     1
102
RTVSPropertyOp31
 70
     1
102
RTVSPropertyOp32
 70
     1
  0
XRECORD
  5
2F5
102
{ACAD_REACTORS
330
2F4
102
}
330
2F4
100
AcDbXrecord
280
     1
102
RTVSPropertyOp0
 70
     1
102
RTVSPropertyOp1
 70
     1
102
RTVSPropertyOp2
 70
     1
102
RTVSPropertyOp3
 70
     1
102
RTVSPropertyOp4
 70
     1
102
RTVSPropertyOp5
 70
     1
102
RTVSPropertyOp6
 70
     1
102
RTVSPropertyOp7
 70
     1
102
RTVSPropertyOp8
 70
     1
102
RTVSPropertyOp9
 70
     1
102
RTVSPropertyOp10
 70
     1
102
RTVSPropertyOp11
 70
     1
102
RTVSPropertyOp12
 70
     1
102
RTVSPropertyOp13
 70
     1
102
RTVSPropertyOp14
 70
     1
102
RTVSPropertyOp15
 70
     1
102
RTVSPropertyOp16
 70
     1
102
RTVSPropertyOp17
 70
     1
102
RTVSPropertyOp18
 70
     1
102
RTVSPropertyOp19
 70
     1
102
RTVSPropertyOp20
 70
     1
102
RTVSPropertyOp21
 70
     1
102
RTVSPropertyOp22
 70
     1
102
RTVSPropertyOp23
 70
     1
102
RTVSPropertyOp24
 70
     1
102
RTVSPropertyOp25
 70
     1
102
RTVSPropertyOp26
 70
     1
102
RTVSPropertyOp27
 70
     1
102
RTVSPropertyOp28
 70
     1
102
RTVSPropertyOp29
 70
     1
102
RTVSPropertyOp30
 70
     1
102
RTVSPropertyOp31
 70
     1
102
RTVSPropertyOp32
 70
     1
  0
XRECORD
  5
2FD
102
{ACAD_REACTORS
330
2FC
102
}
330
2FC
100
AcDbXrecord
280
     1
102
RTVSPropertyOp0
 70
     1
102
RTVSPropertyOp1
 70
     1
102
RTVSPropertyOp2
 70
     1
102
RTVSPropertyOp3
 70
     1
102
RTVSPropertyOp4
 70
     1
102
RTVSPropertyOp5
 70
     1
102
RTVSPropertyOp6
 70
     1
102
RTVSPropertyOp7
 70
     1
102
RTVSPropertyOp8
 70
     1
102
RTVSPropertyOp9
 70
     1
102
RTVSPropertyOp10
 70
     1
102
RTVSPropertyOp11
 70
     1
102
RTVSPropertyOp12
 70
     1
102
RTVSPropertyOp13
 70
     1
102
RTVSPropertyOp14
 70
     1
102
RTVSPropertyOp15
 70
     1
102
RTVSPropertyOp16
 70
     1
102
RTVSPropertyOp17
 70
     1
102
RTVSPropertyOp18
 70
     1
102
RTVSPropertyOp19
 70
     1
102
RTVSPropertyOp20
 70
     1
102
RTVSPropertyOp21
 70
     1
102
RTVSPropertyOp22
 70
     1
102
RTVSPropertyOp23
 70
     1
102
RTVSPropertyOp24
 70
     1
102
RTVSPropertyOp25
 70
     1
102
RTVSPropertyOp26
 70
     1
102
RTVSPropertyOp27
 70
     1
102
RTVSPropertyOp28
 70
     1
102
RTVSPropertyOp29
 70
     1
102
RTVSPropertyOp30
 70
     1
102
RTVSPropertyOp31
 70
     1
102
RTVSPropertyOp32
 70
     1
  0
XRECORD
  5
305
102
{ACAD_REACTORS
330
304
102
}
330
304
100
AcDbXrecord
280
     1
102
RTVSPropertyOp0
 70
     1
102
RTVSPropertyOp1
 70
     1
102
RTVSPropertyOp2
 70
     1
102
RTVSPropertyOp3
 70
     1
102
RTVSPropertyOp4
 70
     1
102
RTVSPropertyOp5
 70
     1
102
RTVSPropertyOp6
 70
     1
102
RTVSPropertyOp7
 70
     1
102
RTVSPropertyOp8
 70
     1
102
RTVSPropertyOp9
 70
     1
102
RTVSPropertyOp10
 70
     1
102
RTVSPropertyOp11
 70
     1
102
RTVSPropertyOp12
 70
     1
102
RTVSPropertyOp13
 70
     1
102
RTVSPropertyOp14
 70
     1
102
RTVSPropertyOp15
 70
     1
102
RTVSPropertyOp16
 70
     1
102
RTVSPropertyOp17
 70
     1
102
RTVSPropertyOp18
 70
     1
102
RTVSPropertyOp19
 70
     1
102
RTVSPropertyOp20
 70
     1
102
RTVSPropertyOp21
 70
     1
102
RTVSPropertyOp22
 70
     1
102
RTVSPropertyOp23
 70
     1
102
RTVSPropertyOp24
 70
     1
102
RTVSPropertyOp25
 70
     1
102
RTVSPropertyOp26
 70
     1
102
RTVSPropertyOp27
 70
     1
102
RTVSPropertyOp28
 70
     1
102
RTVSPropertyOp29
 70
     1
102
RTVSPropertyOp30
 70
     1
102
RTVSPropertyOp31
 70
     1
102
RTVSPropertyOp32
 70
     1
  0
XRECORD
  5
2F9
102
{ACAD_REACTORS
330
2F8
102
}
330
2F8
100
AcDbXrecord
280
     1
102
RTVSPropertyOp0
 70
     1
102
RTVSPropertyOp1
 70
     1
102
RTVSPropertyOp2
 70
     1
102
RTVSPropertyOp3
 70
     1
102
RTVSPropertyOp4
 70
     1
102
RTVSPropertyOp5
 70
     1
102
RTVSPropertyOp6
 70
     1
102
RTVSPropertyOp7
 70
     1
102
RTVSPropertyOp8
 70
     1
102
RTVSPropertyOp9
 70
     1
102
RTVSPropertyOp10
 70
     1
102
RTVSPropertyOp11
 70
     1
102
RTVSPropertyOp12
 70
     1
102
RTVSPropertyOp13
 70
     1
102
RTVSPropertyOp14
 70
     1
102
RTVSPropertyOp15
 70
     1
102
RTVSPropertyOp16
 70
     1
102
RTVSPropertyOp17
 70
     1
102
RTVSPropertyOp18
 70
     1
102
RTVSPropertyOp19
 70
     1
102
RTVSPropertyOp20
 70
     1
102
RTVSPropertyOp21
 70
     1
102
RTVSPropertyOp22
 70
     1
102
RTVSPropertyOp23
 70
     1
102
RTVSPropertyOp24
 70
     1
102
RTVSPropertyOp25
 70
     1
102
RTVSPropertyOp26
 70
     1
102
RTVSPropertyOp27
 70
     1
102
RTVSPropertyOp28
 70
     1
102
RTVSPropertyOp29
 70
     1
102
RTVSPropertyOp30
 70
     1
102
RTVSPropertyOp31
 70
     1
102
RTVSPropertyOp32
 70
     1
  0
XRECORD
  5
2FB
102
{ACAD_REACTORS
330
2FA
102
}
330
2FA
100
AcDbXrecord
280
     1
102
RTVSPropertyOp0
 70
     1
102
RTVSPropertyOp1
 70
     1
102
RTVSPropertyOp2
 70
     1
102
RTVSPropertyOp3
 70
     1
102
RTVSPropertyOp4
 70
     1
102
RTVSPropertyOp5
 70
     1
102
RTVSPropertyOp6
 70
     1
102
RTVSPropertyOp7
 70
     1
102
RTVSPropertyOp8
 70
     1
102
RTVSPropertyOp9
 70
     1
102
RTVSPropertyOp10
 70
     1
102
RTVSPropertyOp11
 70
     1
102
RTVSPropertyOp12
 70
     1
102
RTVSPropertyOp13
 70
     1
102
RTVSPropertyOp14
 70
     1
102
RTVSPropertyOp15
 70
     1
102
RTVSPropertyOp16
 70
     1
102
RTVSPropertyOp17
 70
     1
102
RTVSPropertyOp18
 70
     1
102
RTVSPropertyOp19
 70
     1
102
RTVSPropertyOp20
 70
     1
102
RTVSPropertyOp21
 70
     1
102
RTVSPropertyOp22
 70
     1
102
RTVSPropertyOp23
 70
     1
102
RTVSPropertyOp24
 70
     1
102
RTVSPropertyOp25
 70
     1
102
RTVSPropertyOp26
 70
     1
102
RTVSPropertyOp27
 70
     1
102
RTVSPropertyOp28
 70
     1
102
RTVSPropertyOp29
 70
     1
102
RTVSPropertyOp30
 70
     1
102
RTVSPropertyOp31
 70
     1
102
RTVSPropertyOp32
 70
     1
  0
XRECORD
  5
303
102
{ACAD_REACTORS
330
302
102
}
330
302
100
AcDbXrecord
280
     1
102
RTVSPropertyOp0
 70
     1
102
RTVSPropertyOp1
 70
     1
102
RTVSPropertyOp2
 70
     1
102
RTVSPropertyOp3
 70
     1
102
RTVSPropertyOp4
 70
     1
102
RTVSPropertyOp5
 70
     1
102
RTVSPropertyOp6
 70
     1
102
RTVSPropertyOp7
 70
     1
102
RTVSPropertyOp8
 70
     1
102
RTVSPropertyOp9
 70
     1
102
RTVSPropertyOp10
 70
     1
102
RTVSPropertyOp11
 70
     1
102
RTVSPropertyOp12
 70
     1
102
RTVSPropertyOp13
 70
     1
102
RTVSPropertyOp14
 70
     1
102
RTVSPropertyOp15
 70
     1
102
RTVSPropertyOp16
 70
     1
102
RTVSPropertyOp17
 70
     1
102
RTVSPropertyOp18
 70
     1
102
RTVSPropertyOp19
 70
     1
102
RTVSPropertyOp20
 70
     1
102
RTVSPropertyOp21
 70
     1
102
RTVSPropertyOp22
 70
     1
102
RTVSPropertyOp23
 70
     1
102
RTVSPropertyOp24
 70
     1
102
RTVSPropertyOp25
 70
     1
102
RTVSPropertyOp26
 70
     1
102
RTVSPropertyOp27
 70
     1
102
RTVSPropertyOp28
 70
     1
102
RTVSPropertyOp29
 70
     1
102
RTVSPropertyOp30
 70
     1
102
RTVSPropertyOp31
 70
     1
102
RTVSPropertyOp32
 70
     1
  0
XRECORD
  5
2E7
102
{ACAD_REACTORS
330
2E6
102
}
330
2E6
100
AcDbXrecord
280
     1
102
RTVSPropertyOp0
 70
     1
102
RTVSPropertyOp1
 70
     1
102
RTVSPropertyOp2
 70
     1
102
RTVSPropertyOp3
 70
     1
102
RTVSPropertyOp4
 70
     1
102
RTVSPropertyOp5
 70
     1
102
RTVSPropertyOp6
 70
     1
102
RTVSPropertyOp7
 70
     1
102
RTVSPropertyOp8
 70
     1
102
RTVSPropertyOp9
 70
     1
102
RTVSPropertyOp10
 70
     1
102
RTVSPropertyOp11
 70
     1
102
RTVSPropertyOp12
 70
     1
102
RTVSPropertyOp13
 70
     1
102
RTVSPropertyOp14
 70
     1
102
RTVSPropertyOp15
 70
     1
102
RTVSPropertyOp16
 70
     1
102
RTVSPropertyOp17
 70
     1
102
RTVSPropertyOp18
 70
     1
102
RTVSPropertyOp19
 70
     1
102
RTVSPropertyOp20
 70
     1
102
RTVSPropertyOp21
 70
     1
102
RTVSPropertyOp22
 70
     1
102
RTVSPropertyOp23
 70
     1
102
RTVSPropertyOp24
 70
     1
102
RTVSPropertyOp25
 70
     1
102
RTVSPropertyOp26
 70
     1
102
RTVSPropertyOp27
 70
     1
102
RTVSPropertyOp28
 70
     1
102
RTVSPropertyOp29
 70
     1
102
RTVSPropertyOp30
 70
     1
102
RTVSPropertyOp31
 70
     1
102
RTVSPropertyOp32
 70
     1
  0
XRECORD
  5
2E9
102
{ACAD_REACTORS
330
2E8
102
}
330
2E8
100
AcDbXrecord
280
     1
102
RTVSPropertyOp0
 70
     1
102
RTVSPropertyOp1
 70
     1
102
RTVSPropertyOp2
 70
     1
102
RTVSPropertyOp3
 70
     1
102
RTVSPropertyOp4
 70
     1
102
RTVSPropertyOp5
 70
     1
102
RTVSPropertyOp6
 70
     1
102
RTVSPropertyOp7
 70
     1
102
RTVSPropertyOp8
 70
     1
102
RTVSPropertyOp9
 70
     1
102
RTVSPropertyOp10
 70
     1
102
RTVSPropertyOp11
 70
     1
102
RTVSPropertyOp12
 70
     1
102
RTVSPropertyOp13
 70
     1
102
RTVSPropertyOp14
 70
     1
102
RTVSPropertyOp15
 70
     1
102
RTVSPropertyOp16
 70
     1
102
RTVSPropertyOp17
 70
     1
102
RTVSPropertyOp18
 70
     1
102
RTVSPropertyOp19
 70
     1
102
RTVSPropertyOp20
 70
     1
102
RTVSPropertyOp21
 70
     1
102
RTVSPropertyOp22
 70
     1
102
RTVSPropertyOp23
 70
     1
102
RTVSPropertyOp24
 70
     1
102
RTVSPropertyOp25
 70
     1
102
RTVSPropertyOp26
 70
     1
102
RTVSPropertyOp27
 70
     1
102
RTVSPropertyOp28
 70
     1
102
RTVSPropertyOp29
 70
     1
102
RTVSPropertyOp30
 70
     1
102
RTVSPropertyOp31
 70
     1
102
RTVSPropertyOp32
 70
     1
  0
XRECORD
  5
2EB
102
{ACAD_REACTORS
330
2EA
102
}
330
2EA
100
AcDbXrecord
280
     1
102
RTVSPropertyOp0
 70
     1
102
RTVSPropertyOp1
 70
     1
102
RTVSPropertyOp2
 70
     1
102
RTVSPropertyOp3
 70
     1
102
RTVSPropertyOp4
 70
     1
102
RTVSPropertyOp5
 70
     1
102
RTVSPropertyOp6
 70
     1
102
RTVSPropertyOp7
 70
     1
102
RTVSPropertyOp8
 70
     1
102
RTVSPropertyOp9
 70
     1
102
RTVSPropertyOp10
 70
     1
102
RTVSPropertyOp11
 70
     1
102
RTVSPropertyOp12
 70
     1
102
RTVSPropertyOp13
 70
     1
102
RTVSPropertyOp14
 70
     1
102
RTVSPropertyOp15
 70
     1
102
RTVSPropertyOp16
 70
     1
102
RTVSPropertyOp17
 70
     1
102
RTVSPropertyOp18
 70
     1
102
RTVSPropertyOp19
 70
     1
102
RTVSPropertyOp20
 70
     1
102
RTVSPropertyOp21
 70
     1
102
RTVSPropertyOp22
 70
     1
102
RTVSPropertyOp23
 70
     1
102
RTVSPropertyOp24
 70
     1
102
RTVSPropertyOp25
 70
     1
102
RTVSPropertyOp26
 70
     1
102
RTVSPropertyOp27
 70
     1
102
RTVSPropertyOp28
 70
     1
102
RTVSPropertyOp29
 70
     1
102
RTVSPropertyOp30
 70
     1
102
RTVSPropertyOp31
 70
     1
102
RTVSPropertyOp32
 70
     1
  0
XRECORD
  5
2ED
102
{ACAD_REACTORS
330
2EC
102
}
330
2EC
100
AcDbXrecord
280
     1
102
RTVSPropertyOp0
 70
     1
102
RTVSPropertyOp1
 70
     1
102
RTVSPropertyOp2
 70
     1
102
RTVSPropertyOp3
 70
     1
102
RTVSPropertyOp4
 70
     1
102
RTVSPropertyOp5
 70
     1
102
RTVSPropertyOp6
 70
     1
102
RTVSPropertyOp7
 70
     1
102
RTVSPropertyOp8
 70
     1
102
RTVSPropertyOp9
 70
     1
102
RTVSPropertyOp10
 70
     1
102
RTVSPropertyOp11
 70
     1
102
RTVSPropertyOp12
 70
     1
102
RTVSPropertyOp13
 70
     1
102
RTVSPropertyOp14
 70
     1
102
RTVSPropertyOp15
 70
     1
102
RTVSPropertyOp16
 70
     1
102
RTVSPropertyOp17
 70
     1
102
RTVSPropertyOp18
 70
     1
102
RTVSPropertyOp19
 70
     1
102
RTVSPropertyOp20
 70
     1
102
RTVSPropertyOp21
 70
     1
102
RTVSPropertyOp22
 70
     1
102
RTVSPropertyOp23
 70
     1
102
RTVSPropertyOp24
 70
     1
102
RTVSPropertyOp25
 70
     1
102
RTVSPropertyOp26
 70
     1
102
RTVSPropertyOp27
 70
     1
102
RTVSPropertyOp28
 70
     1
102
RTVSPropertyOp29
 70
     1
102
RTVSPropertyOp30
 70
     1
102
RTVSPropertyOp31
 70
     1
102
RTVSPropertyOp32
 70
     1
  0
XRECORD
  5
301
102
{ACAD_REACTORS
330
300
102
}
330
300
100
AcDbXrecord
280
     1
102
RTVSPropertyOp0
 70
     1
102
RTVSPropertyOp1
 70
     1
102
RTVSPropertyOp2
 70
     1
102
RTVSPropertyOp3
 70
     1
102
RTVSPropertyOp4
 70
     1
102
RTVSPropertyOp5
 70
     1
102
RTVSPropertyOp6
 70
     1
102
RTVSPropertyOp7
 70
     1
102
RTVSPropertyOp8
 70
     1
102
RTVSPropertyOp9
 70
     1
102
RTVSPropertyOp10
 70
     1
102
RTVSPropertyOp11
 70
     1
102
RTVSPropertyOp12
 70
     1
102
RTVSPropertyOp13
 70
     1
102
RTVSPropertyOp14
 70
     1
102
RTVSPropertyOp15
 70
     1
102
RTVSPropertyOp16
 70
     1
102
RTVSPropertyOp17
 70
     1
102
RTVSPropertyOp18
 70
     1
102
RTVSPropertyOp19
 70
     1
102
RTVSPropertyOp20
 70
     1
102
RTVSPropertyOp21
 70
     1
102
RTVSPropertyOp22
 70
     1
102
RTVSPropertyOp23
 70
     1
102
RTVSPropertyOp24
 70
     1
102
RTVSPropertyOp25
 70
     1
102
RTVSPropertyOp26
 70
     1
102
RTVSPropertyOp27
 70
     1
102
RTVSPropertyOp28
 70
     1
102
RTVSPropertyOp29
 70
     1
102
RTVSPropertyOp30
 70
     1
102
RTVSPropertyOp31
 70
     1
102
RTVSPropertyOp32
 70
     1
  0
XRECORD
  5
2F7
102
{ACAD_REACTORS
330
2F6
102
}
330
2F6
100
AcDbXrecord
280
     1
102
RTVSPropertyOp0
 70
     1
102
RTVSPropertyOp1
 70
     1
102
RTVSPropertyOp2
 70
     1
102
RTVSPropertyOp3
 70
     1
102
RTVSPropertyOp4
 70
     1
102
RTVSPropertyOp5
 70
     1
102
RTVSPropertyOp6
 70
     1
102
RTVSPropertyOp7
 70
     1
102
RTVSPropertyOp8
 70
     1
102
RTVSPropertyOp9
 70
     1
102
RTVSPropertyOp10
 70
     1
102
RTVSPropertyOp11
 70
     1
102
RTVSPropertyOp12
 70
     1
102
RTVSPropertyOp13
 70
     1
102
RTVSPropertyOp14
 70
     1
102
RTVSPropertyOp15
 70
     1
102
RTVSPropertyOp16
 70
     1
102
RTVSPropertyOp17
 70
     1
102
RTVSPropertyOp18
 70
     1
102
RTVSPropertyOp19
 70
     1
102
RTVSPropertyOp20
 70
     1
102
RTVSPropertyOp21
 70
     1
102
RTVSPropertyOp22
 70
     1
102
RTVSPropertyOp23
 70
     1
102
RTVSPropertyOp24
 70
     1
102
RTVSPropertyOp25
 70
     1
102
RTVSPropertyOp26
 70
     1
102
RTVSPropertyOp27
 70
     1
102
RTVSPropertyOp28
 70
     1
102
RTVSPropertyOp29
 70
     1
102
RTVSPropertyOp30
 70
     1
102
RTVSPropertyOp31
 70
     1
102
RTVSPropertyOp32
 70
     1
  0
XRECORD
  5
2FF
102
{ACAD_REACTORS
330
2FE
102
}
330
2FE
100
AcDbXrecord
280
     1
102
RTVSPropertyOp0
 70
     1
102
RTVSPropertyOp1
 70
     1
102
RTVSPropertyOp2
 70
     1
102
RTVSPropertyOp3
 70
     1
102
RTVSPropertyOp4
 70
     1
102
RTVSPropertyOp5
 70
     1
102
RTVSPropertyOp6
 70
     1
102
RTVSPropertyOp7
 70
     1
102
RTVSPropertyOp8
 70
     1
102
RTVSPropertyOp9
 70
     1
102
RTVSPropertyOp10
 70
     1
102
RTVSPropertyOp11
 70
     1
102
RTVSPropertyOp12
 70
     1
102
RTVSPropertyOp13
 70
     1
102
RTVSPropertyOp14
 70
     1
102
RTVSPropertyOp15
 70
     1
102
RTVSPropertyOp16
 70
     1
102
RTVSPropertyOp17
 70
     1
102
RTVSPropertyOp18
 70
     1
102
RTVSPropertyOp19
 70
     1
102
RTVSPropertyOp20
 70
     1
102
RTVSPropertyOp21
 70
     1
102
RTVSPropertyOp22
 70
     1
102
RTVSPropertyOp23
 70
     1
102
RTVSPropertyOp24
 70
     1
102
RTVSPropertyOp25
 70
     1
102
RTVSPropertyOp26
 70
     1
102
RTVSPropertyOp27
 70
     1
102
RTVSPropertyOp28
 70
     1
102
RTVSPropertyOp29
 70
     1
102
RTVSPropertyOp30
 70
     1
102
RTVSPropertyOp31
 70
     1
102
RTVSPropertyOp32
 70
     1
  0
ENDSEC
  0
EOF
